<?xml version="1.0" encoding="UTF-8"?>
<svg height="100%" width="100%" xmlns="http://www.w3.org/2000/svg">
	<defs>
		<font horiz-adv-x="538" id="web">
			<font-face alphabetic="0" ascent="987" descent="-223" font-family="" panose-1="2 11 6 4 2 2 2 9 2 4"/>
			<missing-glyph d="M-2 718H510V0H-2ZM48 667V50H460V667ZM257 609Q311 609 346 573T381 478Q381 446 369 421T317 357Q283 326 276 311Q269 294 269 234H223L221 253Q221 300 232 328T284 395Q330 436 330 474Q330 508 306 533T254 559Q184 559 172 464L122 472Q136 609 257 609ZM220 184H276V117H220Z" horiz-adv-x="509"/>
			<glyph d="" horiz-adv-x="238" unicode=" "/>
			<glyph d="M172 714H265L218 491L128 183H82L125 490ZM37 111H148L124 0H13Z" horiz-adv-x="280" unicode="!"/>
			<glyph d="M132 714H200V456H132ZM272 714H340V456H272Z" horiz-adv-x="392" unicode="&quot;"/>
			<glyph d="M196 697H265L236 492H358L387 697H456L427 492H518L509 424H418L397 274H490L481 206H388L359 0H290L319 206H196L167 0H98L127 206H30L39 274H136L157 424H56L65 492H167ZM227 424L206 274H328L349 424Z" horiz-adv-x="548" unicode="#"/>
			<glyph d="M330 794H383L369 725Q448 702 490 648T532 520L531 503H441V516Q441 623 354 651L305 405L380 380Q511 332 511 206Q511 143 478 92T386 10T257 -20Q238 -20 219 -17L202 -97H149L167 -12Q81 0 32 60T-16 211Q-16 212 -15 234H75V216Q75 151 102 113T183 65L237 334Q146 359 103 403T60 519Q60 583 94 632T182 707T292 732Q312 732 317 731ZM300 656Q255 656 220 639T167 592T150 529Q150 463 229 429L254 418L302 656ZM288 322L234 58Q242 55 256 55Q297 55 336 73T398 125T421 197Q421 238 404 263T347 302Z" horiz-adv-x="516" unicode="$"/>
			<glyph d="M632 725H696L261 -28H197ZM253 709Q398 709 398 564Q398 455 346 382T211 309Q144 309 105 347T67 454Q67 518 90 578T156 674T253 709ZM257 654Q206 654 170 595T135 458Q135 408 153 386T214 364Q267 364 298 422T330 568Q330 654 257 654ZM687 388Q832 388 832 243Q832 134 781 61T645 -12Q578 -12 539 26T501 133Q501 198 524 258T589 353T687 388ZM691 333Q640 333 604 273T569 137Q569 86 587 64T648 43Q701 43 732 102T764 248Q764 333 691 333Z" horiz-adv-x="899" unicode="%"/>
			<glyph d="M333 714Q405 714 450 675T496 578Q496 518 452 469T320 376L432 192Q484 263 495 337H577Q564 276 542 230T474 130L559 0H462L418 74Q328 -12 214 -12Q128 -12 71 39T15 173Q15 244 63 296T214 398Q179 450 167 485T155 556Q155 624 204 669T333 714ZM331 639Q293 639 266 615T240 551Q240 501 285 434Q356 472 383 502T411 565Q411 599 388 619T331 639ZM251 338Q170 297 135 258T100 169Q100 125 135 94T223 63Q262 63 294 75T378 130Z" horiz-adv-x="632" unicode="&amp;"/>
			<glyph d="M138 714H206V456H138Z" horiz-adv-x="270" unicode="'"/>
			<glyph d="M297 731H367Q244 584 184 437T124 133Q124 -42 176 -198H120Q86 -127 62 -18T39 170Q39 315 100 447T297 731Z" horiz-adv-x="279" unicode="("/>
			<glyph d="M85 731H141Q176 650 199 548T222 362Q222 220 163 89T-36 -198H-106Q137 85 137 398Q137 575 85 731Z" horiz-adv-x="281" unicode=")"/>
			<glyph d="M213 714H267L242 601L352 612L357 564L250 550L299 450L250 427L203 530L125 443L88 480L165 564L70 612L95 658L191 609Z" horiz-adv-x="348" unicode="*"/>
			<glyph d="M265 506H333V287H551V219H333V0H265V219H47V287H265Z" horiz-adv-x="598" unicode="+"/>
			<glyph d="M-6 111H105L89 30Q69 -74 30 -109T-61 -147L-51 -99Q-19 -94 -3 -72T26 0H-30Z" horiz-adv-x="237" unicode=","/>
			<glyph d="M49 318H339L323 238H33Z" horiz-adv-x="402" unicode="-"/>
			<glyph d="M-6 111H105L81 0H-30Z" horiz-adv-x="237" unicode="."/>
			<glyph d="M239 731H312L16 -17H-57Z" horiz-adv-x="269" unicode="/"/>
			<glyph d="M345 709Q442 709 489 644T536 442Q536 343 497 229Q459 114 390 51T231 -12Q35 -12 35 263Q35 366 75 474T183 646T345 709ZM338 634Q276 634 228 576T153 418T125 248Q125 63 240 63Q333 63 390 188T447 468Q447 555 422 594T338 634Z" horiz-adv-x="570" unicode="0"/>
			<glyph d="M316 709H382L231 0H141L256 539Q174 519 73 519L87 587Q163 588 224 621T316 709Z" horiz-adv-x="381" unicode="1"/>
			<glyph d="M318 709Q407 709 462 656T517 520Q517 443 465 378T271 237Q115 151 88 75H457L441 0H-11Q-2 97 47 158T212 287Q340 361 383 408T427 515Q427 567 396 600T308 634Q243 634 200 589T153 468H63Q76 586 142 647T318 709Z" horiz-adv-x="519" unicode="2"/>
			<glyph d="M330 709Q395 709 440 689T510 630T535 533Q535 478 500 433T408 370Q500 329 500 224Q500 165 466 108T375 20T244 -12Q172 -12 122 13T46 90T21 209V219H111V210Q111 136 145 99T246 63Q319 63 364 106T410 219Q410 285 368 310T241 336H234L249 404Q263 403 277 403Q363 403 404 437T445 536Q445 587 416 610T326 634Q263 634 227 599T181 490H91Q109 599 171 654T330 709Z" horiz-adv-x="557" unicode="3"/>
			<glyph d="M441 709H513L415 241H509L494 166H400L364 0H279L315 166H4L21 250ZM395 562L102 241H330L397 562Z" horiz-adv-x="547" unicode="4"/>
			<glyph d="M163 697H522L507 622H216L160 430L162 428Q213 467 287 467Q377 467 431 408T486 253Q486 133 412 60T219 -12Q123 -12 65 39T6 190H96Q96 63 224 63Q299 63 347 114T396 249Q396 320 359 356T255 392Q216 392 182 374T129 323H53Z" horiz-adv-x="535" unicode="5"/>
			<glyph d="M365 709Q452 709 500 661T551 525H461Q459 634 351 634Q277 634 228 575T144 385H146Q169 420 211 438T301 456Q385 456 443 397T501 248Q501 134 430 61T248 -12Q145 -12 90 51T35 228Q35 404 113 556T365 709ZM280 381Q211 381 168 332T125 206Q125 138 159 100T256 63Q325 63 368 114T411 244Q411 307 377 344T280 381Z" horiz-adv-x="565" unicode="6"/>
			<glyph d="M60 697H517L504 625Q393 522 293 350T135 0H38Q147 345 412 622H43Z" horiz-adv-x="455" unicode="7"/>
			<glyph d="M318 709Q402 709 459 660T517 533Q517 476 482 432T390 374V372Q438 352 464 308T490 205Q490 110 420 49T253 -12Q147 -12 83 43T20 189Q20 267 64 319T190 386V388Q152 404 127 441T102 520Q102 604 162 656T318 709ZM313 634Q259 634 225 601T192 516Q192 466 222 438T311 411Q365 411 396 444T427 526Q427 634 313 634ZM268 336Q196 336 153 297T110 190Q110 130 146 96T247 63Q313 63 356 101T400 208Q400 266 365 301T268 336Z" horiz-adv-x="551" unicode="8"/>
			<glyph d="M327 709Q432 709 488 646T545 471Q545 300 468 144T224 -12Q131 -12 80 32T30 162V169H120Q120 63 222 63Q300 63 350 121T437 307L435 309Q409 273 366 256T278 239Q192 239 136 299T80 447Q80 559 149 634T327 709ZM317 634Q251 634 211 579T170 451Q170 385 204 349T299 314Q370 314 412 363T455 489Q455 558 419 596T317 634Z" horiz-adv-x="579" unicode="9"/>
			<glyph d="M117 517H229L206 406H94ZM32 111H145L122 0H10Z" horiz-adv-x="276" unicode=":"/>
			<glyph d="M115 517H226L202 406H91ZM31 111H142L126 30Q115 -27 98 -64T49 -123T-24 -147L-14 -99Q14 -95 31 -75T63 0H7Z" horiz-adv-x="273" unicode=";"/>
			<glyph d="M552 514V446L127 253L552 60V-8L44 222V284Z" horiz-adv-x="597" unicode="&lt;"/>
			<glyph d="M47 388H551V320H47ZM47 186H551V118H47Z" horiz-adv-x="597" unicode="="/>
			<glyph d="M44 514L552 284V222L44 -8V60L469 253L44 446Z" horiz-adv-x="597" unicode="&gt;"/>
			<glyph d="M323 722Q412 722 471 677T530 557Q530 497 503 449T393 343Q329 299 305 266T274 183H191Q201 250 232 299T345 402Q440 467 440 542Q440 593 410 620T325 647Q258 647 216 603T166 488H81Q87 589 154 655T323 722ZM164 111H275L251 0H140Z" horiz-adv-x="542" unicode="?"/>
			<glyph d="M413 731Q503 731 582 691T707 580T753 423Q753 349 718 281T626 173T519 133Q491 133 474 150T455 198H452Q393 131 328 131Q265 131 225 177T185 290Q185 403 253 488T420 573Q500 573 532 491L555 554H618L535 272Q523 230 523 219Q523 188 547 188Q594 188 639 264T685 418Q685 527 607 601T414 676Q288 676 199 582T110 355Q110 224 201 132T419 38Q489 38 557 71T667 159H730Q680 76 596 29T417 -17Q257 -17 149 93T42 360Q42 460 92 546T227 682T413 731ZM419 505Q355 505 307 436T260 296Q260 256 283 227T346 199Q405 199 453 269T501 412Q501 449 475 477T419 505Z" horiz-adv-x="796" unicode="@"/>
			<glyph d="M344 714H448L577 0H479L446 215H145L20 0H-86ZM379 630L188 295H434L381 630Z" horiz-adv-x="646" unicode="A"/>
			<glyph d="M146 714H437Q632 714 632 543Q632 479 592 429T496 371V369Q603 335 603 221Q603 123 532 61T354 0H-3ZM221 634L173 407H389Q460 407 498 441T537 542Q537 634 404 634ZM157 327L105 80H338Q415 80 461 115T508 221Q508 275 474 301T365 327Z" horiz-adv-x="664" unicode="B"/>
			<glyph d="M419 731Q545 731 618 664T691 484H596Q596 565 548 608T419 651Q284 651 203 546T122 296Q122 187 175 125T333 63Q503 63 554 241H649Q620 112 539 47T333 -17Q188 -17 107 65T27 296Q27 480 137 605T419 731Z" horiz-adv-x="705" unicode="C"/>
			<glyph d="M148 714H403Q530 714 599 641T668 440Q668 243 560 121T271 0H-3ZM224 634L107 80H277Q408 80 490 181T573 431Q573 634 381 634Z" horiz-adv-x="689" unicode="D"/>
			<glyph d="M148 714H640L624 634H227L179 407H549L533 327H162L110 80H512L494 0H-3Z" horiz-adv-x="610" unicode="E"/>
			<glyph d="M146 714H616L599 634H224L177 407H507L490 327H160L92 0H-3Z" horiz-adv-x="558" unicode="F"/>
			<glyph d="M418 731Q551 731 628 667T705 492H610Q610 567 557 609T418 651Q282 651 202 547T121 296Q121 187 174 125T332 63Q434 63 497 119T590 296H362L378 376H689L611 0H551L545 71Q461 -17 332 -17Q186 -17 106 66T26 296Q26 484 137 607T418 731Z" horiz-adv-x="735" unicode="G"/>
			<glyph d="M147 714H243L178 407H552L616 714H711L561 0H466L535 327H161L92 0H-3Z" horiz-adv-x="701" unicode="H"/>
			<glyph d="M147 714H242L92 0H-3Z" horiz-adv-x="232" unicode="I"/>
			<glyph d="M420 714H514L405 194Q386 115 372 85T331 31T267 -5T178 -17Q87 -17 33 23T-20 136Q-20 178 -11 234H85Q75 187 75 159Q75 63 180 63Q233 63 265 98T316 223Z" horiz-adv-x="509" unicode="J"/>
			<glyph d="M148 714H243L168 362L170 360L574 714H701L357 420L586 0H481L286 362L143 241L92 0H-3Z" horiz-adv-x="643" unicode="K"/>
			<glyph d="M147 714H242L110 80H487L470 0H-3Z" horiz-adv-x="562" unicode="L"/>
			<glyph d="M147 714H279L374 100H376L729 714H861L710 0H619L765 625H763L399 0H308L215 625H213L88 0H-3Z" horiz-adv-x="851" unicode="M"/>
			<glyph d="M148 714H250L505 123H507L626 714H718L567 0H465L212 587H210L89 0H-3Z" horiz-adv-x="708" unicode="N"/>
			<glyph d="M419 731Q551 731 634 642T717 415Q717 299 668 199T531 41T333 -17Q188 -17 107 65T27 296Q27 483 137 607T419 731ZM418 651Q288 651 205 549T122 296Q122 187 175 125T333 63Q416 63 481 109T584 238T622 415Q622 521 566 586T418 651Z" horiz-adv-x="742" unicode="O"/>
			<glyph d="M146 714H432Q532 714 585 664T639 518Q639 419 565 355T365 292H154L92 0H-3ZM226 634L171 372H390Q458 372 501 410T544 517Q544 574 514 604T430 634Z" horiz-adv-x="627" unicode="P"/>
			<glyph d="M418 731Q550 731 633 642T716 415Q716 315 678 223T564 66L651 -18L597 -74L498 22Q421 -17 332 -17Q186 -17 106 66T26 296Q26 415 75 516T214 674T418 731ZM417 651Q286 651 203 549T121 296Q121 187 174 125T332 63Q387 63 434 84L369 146L423 203L502 126Q558 172 589 251T621 415Q621 521 565 586T417 651Z" horiz-adv-x="747" unicode="Q"/>
			<glyph d="M148 714H428Q502 714 553 693T631 632T658 532Q657 456 612 403T497 340V338Q532 328 552 294T572 211Q572 190 564 133T557 62Q557 28 571 0H472Q464 29 464 63Q464 90 472 142T480 209Q480 304 401 305H156L92 0H-3ZM226 634L173 385H391Q471 385 517 423T563 526Q563 580 528 607T427 634Z" horiz-adv-x="657" unicode="R"/>
			<glyph d="M339 731Q419 731 477 704T566 628T597 513V503H502V510Q502 584 461 617T339 651Q291 651 252 635T193 593T173 534Q173 487 204 460T294 418L385 394Q477 369 517 321T557 201Q557 135 520 86T418 10T279 -17Q192 -17 129 8T31 85T-3 208Q-3 229 -2 234H93V222Q93 142 140 102T283 63Q364 63 413 101T462 200Q462 243 433 271T333 318L254 339Q166 362 122 407T78 524Q78 588 114 635T212 707T339 731Z" horiz-adv-x="605" unicode="S"/>
			<glyph d="M93 714H669L651 634H411L277 0H182L316 634H76Z" horiz-adv-x="609" unicode="T"/>
			<glyph d="M129 714H224L130 270Q122 233 122 205Q122 135 166 99T299 63Q366 63 409 86T476 156Q498 199 527 334L607 714H702L613 285Q586 155 560 114T498 44T410 -1T298 -17Q165 -17 97 41T30 206Q30 207 30 226T38 285Z" horiz-adv-x="677" unicode="U"/>
			<glyph d="M60 714H157L230 93H232L571 714H672L269 0H162Z" horiz-adv-x="589" unicode="V"/>
			<glyph d="M68 714H162L187 113H189L463 714H571L611 111H613L873 714H971L643 0H544L499 616H497L215 0H113Z" horiz-adv-x="901" unicode="W"/>
			<glyph d="M50 714H152L284 432L513 714H620L326 360L507 0H409L265 302L21 0H-88L222 373Z" horiz-adv-x="547" unicode="X"/>
			<glyph d="M63 714H164L310 368L581 714H691L345 287L283 0H190L251 287Z" horiz-adv-x="607" unicode="Y"/>
			<glyph d="M106 714H627L610 633L70 80H526L509 0H-58L-41 79L495 634H86Z" horiz-adv-x="590" unicode="Z"/>
			<glyph d="M160 731H349L335 666H227L63 -133H171L157 -198H-32Z" horiz-adv-x="261" unicode="["/>
			<glyph d="M-42 731H31L327 -17H254Z" horiz-adv-x="269" unicode="\"/>
			<glyph d="M105 731H294L102 -198H-87L-73 -133H35L199 666H91Z" horiz-adv-x="261" unicode="]"/>
			<glyph d="M265 697H329L547 264H477L296 624L118 264H47Z" horiz-adv-x="595" unicode="^"/>
			<glyph d="M-1 -75H499V-125H-1Z" horiz-adv-x="498" unicode="_"/>
			<glyph d="M52 732H153L220 589H153Z" horiz-adv-x="191" unicode="`"/>
			<glyph d="M266 529Q455 529 455 397Q455 375 445 327L399 131Q392 104 392 88Q392 56 417 56Q423 56 444 63L431 0Q410 -10 379 -12Q312 -11 311 51Q311 56 312 61L310 63Q279 22 237 5T137 -12Q60 -12 19 27T-21 134Q-21 191 6 225T82 277T240 304Q299 307 325 316T361 342T370 386Q370 420 341 437T266 454Q210 454 172 430T127 361H42Q54 440 114 484T266 529ZM345 264Q318 245 244 237Q138 228 101 205T64 135Q64 102 91 82T157 63Q209 63 245 81T304 132T347 264Z" horiz-adv-x="508" unicode="a"/>
			<glyph d="M138 714H223L168 453L170 451Q235 529 328 529Q428 529 479 470T531 306Q531 220 496 146T399 30T258 -12Q191 -12 143 20T84 96H82L63 0H-13ZM326 454Q235 454 176 377T117 192Q117 131 155 97T258 63Q310 63 353 97T421 189T446 306Q446 372 415 413T326 454Z" horiz-adv-x="577" unicode="b"/>
			<glyph d="M299 529Q487 529 493 353H408Q408 401 379 427T299 454Q212 454 155 382T98 211Q98 139 130 101T226 63Q279 63 318 90T377 169H462Q438 81 377 34T226 -12Q123 -12 68 45T13 211Q13 348 92 438T299 529Z" horiz-adv-x="521" unicode="c"/>
			<glyph d="M518 714H602L451 0H371L389 74H387Q354 29 314 8T216 -12Q121 -12 67 45T13 200Q13 286 51 363T155 484T300 529Q361 529 404 506T461 438H463ZM302 454Q215 454 156 379T98 200Q98 63 230 63Q285 63 331 98T405 196T433 320Q433 380 398 417T302 454Z" horiz-adv-x="585" unicode="d"/>
			<glyph d="M279 529Q496 529 498 301Q498 288 495 265T490 233H101Q98 208 98 188Q98 133 137 98T232 63Q289 63 326 89T381 162H466Q445 77 381 32T232 -12Q160 -12 109 16T36 92T13 197Q13 293 51 371T150 489T279 529ZM291 454Q160 454 113 308H413L414 322Q414 383 382 418T291 454Z" horiz-adv-x="549" unicode="e"/>
			<glyph d="M286 722Q332 722 356 714L342 642Q316 647 302 647Q236 647 219 584L202 517H301L287 442H187L92 0H7L103 442H15L30 517H118L137 598Q153 663 188 692T286 722Z" horiz-adv-x="264" unicode="f"/>
			<glyph d="M280 529Q338 529 386 498T444 422H446L462 517H542L449 76Q421 -58 387 -108T303 -184T175 -210Q80 -210 25 -167T-32 -50H53Q57 -94 88 -114T182 -135Q231 -135 266 -115T324 -55T368 73L366 75Q313 -4 205 -4Q116 -4 63 52T11 210Q11 291 46 366T142 485T280 529ZM279 454Q230 454 188 419T121 326T96 210Q96 146 131 108T223 71Q303 71 357 144T411 319Q411 384 376 419T279 454Z" horiz-adv-x="564" unicode="g"/>
			<glyph d="M138 714H223L162 441L164 439Q231 527 348 529Q422 529 457 497T492 396Q492 375 490 363T478 298L414 0H329L395 303Q406 362 407 382Q407 416 382 435T317 454Q256 454 201 406T132 286L72 0H-13Z" horiz-adv-x="547" unicode="h"/>
			<glyph d="M136 714H222L200 610H114ZM95 517H180L72 0H-13Z" horiz-adv-x="202" unicode="i"/>
			<glyph d="M132 714H218L196 610H110ZM91 517H176L45 -104Q24 -198 -77 -198Q-110 -198 -132 -192L-117 -117Q-99 -123 -84 -123Q-59 -123 -46 -103T-22 -26Z" horiz-adv-x="199" unicode="j"/>
			<glyph d="M138 714H222L133 294L135 292L395 517H506L281 326L409 0H314L213 275L111 184L72 0H-13Z" horiz-adv-x="469" unicode="k"/>
			<glyph d="M137 714H222L72 0H-13Z" horiz-adv-x="202" unicode="l"/>
			<glyph d="M339 529Q447 529 469 436Q497 476 545 502T646 529Q691 529 722 515T771 476T790 413Q790 376 775 309L710 0H625L695 320Q705 363 705 383Q705 414 682 434T626 454Q585 454 545 427T484 369T448 268L391 0H306L366 285Q384 370 384 387Q383 452 312 454Q251 454 185 388Q161 365 150 339T129 264L72 0H-13L97 517H176L157 440L159 438Q232 527 339 529Z" horiz-adv-x="849" unicode="m"/>
			<glyph d="M348 529Q422 529 457 497T492 396Q492 369 487 343T479 303L414 0H329L401 334Q407 362 407 382Q407 416 382 435T317 454Q258 454 203 408T133 288L72 0H-13L96 517H178L162 439H164Q231 527 348 529Z" horiz-adv-x="547" unicode="n"/>
			<glyph d="M303 529Q409 529 463 473T518 315Q518 177 438 82T232 -12Q133 -12 73 48T14 205Q14 292 51 367T153 486T303 529ZM296 454Q214 454 156 380T99 205Q99 136 137 99T241 63Q295 63 338 98T407 191T433 308Q433 373 397 413T296 454Z" horiz-adv-x="568" unicode="o"/>
			<glyph d="M331 529Q425 529 479 472T534 317Q534 232 496 155T393 33T247 -12Q188 -12 143 11T86 79H84L29 -198H-55L96 517H176L158 443H160Q192 486 231 507T331 529ZM315 454Q233 454 173 374T114 197Q114 136 149 99T244 63Q332 63 390 138T449 317Q449 454 315 454Z" horiz-adv-x="585" unicode="p"/>
			<glyph d="M287 529Q419 529 454 435H456L473 517H559L408 -198H322L378 66H376Q310 -12 213 -12Q118 -12 66 48T15 212Q15 344 92 436T287 529ZM295 454Q213 454 156 381T100 212Q100 143 134 103T232 63Q320 63 374 145T429 327Q429 385 394 419T295 454Z" horiz-adv-x="581" unicode="q"/>
			<glyph d="M354 530L370 529L350 438L330 439Q279 439 249 426T181 371T121 229L72 0H-13L95 517H175L150 406H152Q194 474 239 502T354 530Z" horiz-adv-x="328" unicode="r"/>
			<glyph d="M222 529Q313 529 365 484T417 365H332V374Q332 408 302 431T224 454Q115 454 115 388Q115 364 136 346T217 306Q336 258 362 224T388 148Q388 76 330 32T176 -12Q-32 -12 -32 163H53V155Q53 63 185 63Q238 63 270 83T303 142Q303 178 249 204L201 225Q91 270 60 301T30 380Q30 444 84 486T222 529Z" horiz-adv-x="454" unicode="s"/>
			<glyph d="M153 670H238L206 517H309L293 442H190L127 140Q123 118 123 104Q123 69 174 69Q196 69 223 78L208 0Q174 -6 148 -6Q32 -6 32 78Q32 92 38 126L105 442H18L34 517H121Z" horiz-adv-x="310" unicode="t"/>
			<glyph d="M88 517H173L104 199Q95 158 95 135Q95 101 119 82T185 63Q253 63 303 112T370 230L430 517H515L406 0H324L340 78H338Q270 -10 154 -12Q78 -12 44 21T10 121Q10 153 24 220Z" unicode="u"/>
			<glyph d="M31 517H121L165 87H167L391 517H483L196 0H105Z" horiz-adv-x="450" unicode="v"/>
			<glyph d="M31 517H121L153 106H155L341 517H437L462 106H464L660 517H752L485 0H395L369 402H367L182 0H92Z" horiz-adv-x="724" unicode="w"/>
			<glyph d="M48 517H146L224 329L378 517H481L259 267L391 0H294L200 212L24 0H-79L163 274Z" horiz-adv-x="463" unicode="x"/>
			<glyph d="M29 517H120L180 106H182L399 517H492L150 -88Q144 -99 117 -136T61 -190T-16 -210Q-34 -210 -52 -205T-76 -197L-61 -128Q-38 -142 -12 -142Q33 -142 61 -97L120 0Z" horiz-adv-x="457" unicode="y"/>
			<glyph d="M56 517H449L436 456L73 75H382L368 0H-53L-41 64L319 442H41Z" horiz-adv-x="451" unicode="z"/>
			<glyph d="M326 731H393L380 671H330Q307 671 290 649T268 599L227 402Q217 356 187 319T112 268V265Q135 259 149 244T169 211T176 169Q176 161 173 145L136 -38Q130 -65 130 -92Q130 -136 161 -138H213L200 -198H128Q94 -198 69 -171T45 -108Q45 -85 49 -66L87 117Q91 134 91 155Q91 190 74 210T28 232L43 300Q75 300 107 333T150 418L188 603Q200 658 239 694T326 731Z" horiz-adv-x="343" unicode="{"/>
			<glyph d="M75 786H143V-214H75Z" horiz-adv-x="218" unicode="|"/>
			<glyph d="M116 731H188Q226 730 248 703T271 641Q271 613 268 603L229 418Q225 399 225 377Q225 342 243 321T288 300L273 232Q239 232 207 196T165 110L125 -81Q117 -115 96 -141T46 -183T-10 -198H-77L-64 -138H-17Q8 -138 24 -120T51 -55L88 127Q100 182 130 216T204 265V268Q178 273 159 299T140 363Q140 376 142 384L181 575Q186 595 186 617Q186 644 179 657T155 671H103Z" horiz-adv-x="344" unicode="}"/>
			<glyph d="M493 319L529 269Q495 218 466 200T404 183Q374 183 347 194T297 219T245 244T187 255Q162 255 142 238T103 179L67 229Q111 315 192 315Q222 315 253 304T312 279T366 254T405 243Q428 243 446 258T493 319Z" horiz-adv-x="596" unicode="~"/>
			<glyph d="" horiz-adv-x="278" unicode=" "/>
			<glyph d="M127 517H238L214 406H103ZM123 333H169L126 27L79 -198H-14L33 25Z" horiz-adv-x="281" unicode="¡"/>
			<glyph d="M331 620H370L350 527Q425 517 465 473T506 353H421Q421 395 399 423T335 457L251 58Q302 61 337 91T390 169H475Q451 81 389 34T236 -12L214 -116H175L198 -9Q113 2 69 60T26 211Q26 346 108 436T312 529ZM297 459Q215 454 163 381T111 211Q111 75 213 61Z" horiz-adv-x="544" unicode="¢"/>
			<glyph d="M313 731Q382 731 431 702T506 622T532 504V485H442Q443 490 443 505Q441 576 407 616T320 656Q271 656 235 632T180 571T161 488Q161 429 184 372H338L328 327H198Q208 297 208 260Q208 217 171 163T74 71V69Q94 80 129 88T185 96Q230 96 296 71Q332 58 354 58Q377 58 403 73T449 104L481 32Q450 10 411 -3T344 -17Q302 -17 232 10Q217 16 192 23T140 31Q113 31 90 22T22 -12L-7 63Q57 113 87 153T118 248Q117 301 108 327H22L32 372H94Q71 453 71 499Q71 559 102 611T187 696T313 731Z" horiz-adv-x="539" unicode="£"/>
			<glyph d="M481 605L531 554L476 499Q528 445 528 351Q528 261 476 201L531 145L484 98L428 156Q367 101 280 101Q188 101 128 155L73 97L25 145L80 203Q28 267 28 349Q28 441 82 497L25 555L74 604L130 548Q189 599 281 599Q319 599 358 585T424 549ZM280 524Q212 524 162 473T113 349Q113 279 162 227T280 176Q347 176 395 227T443 351Q443 421 395 472T280 524Z" horiz-adv-x="557" unicode="¤"/>
			<glyph d="M88 714H186L287 372L288 371L526 714H634L385 369H481L468 309H339L315 276L306 234H453L439 174H293L257 0H168L204 174H59L73 234H217L225 286L217 309H87L101 369H198Z" horiz-adv-x="553" unicode="¥"/>
			<glyph d="M75 661H143V411H75ZM75 161H143V-89H75Z" horiz-adv-x="218" unicode="¦"/>
			<glyph d="M345 731Q422 731 471 687T521 571V564L520 555H440V559Q440 604 416 629T343 656Q303 656 276 633T248 579Q248 533 295 485Q433 350 462 304T491 215Q491 150 453 107T348 53Q376 16 377 -37Q377 -108 326 -152T181 -198Q102 -196 55 -145T7 -9H87Q87 -63 116 -93T197 -123Q238 -123 265 -100T292 -43Q292 -22 277 7T243 58L111 201Q48 273 46 339Q46 464 185 496Q163 529 163 575Q163 642 213 686T345 731ZM218 445Q198 444 162 418T126 351Q127 311 168 262L277 145Q294 127 314 104Q411 124 411 204Q411 253 319 340Q226 428 218 445Z" horiz-adv-x="563" unicode="§"/>
			<glyph d="M50 706H139L118 602H29ZM213 706H302L281 602H192Z" horiz-adv-x="202" unicode="¨"/>
			<glyph d="M399 731Q500 731 586 682T723 547T774 359Q774 256 724 168T587 32T399 -17Q240 -17 131 93T22 359Q22 459 73 546T211 682T399 731ZM398 676Q267 676 178 584T90 359Q90 223 179 130T399 38Q529 38 617 129T706 359Q706 493 618 584T398 676ZM408 585Q480 585 532 545T596 433H533Q522 479 489 504T409 530Q340 530 298 483T257 359Q257 285 300 234T411 183Q461 183 493 210T533 285H597Q580 211 531 169T411 128Q313 128 251 192T189 357Q189 459 249 522T408 585Z" horiz-adv-x="798" unicode="©"/>
			<glyph d="M212 709Q251 709 280 698T324 671T339 636Q339 623 326 570T304 482T296 442Q296 435 301 432T313 430Q320 430 328 433L320 387Q303 380 286 380Q266 380 254 391T242 420V426H239Q204 382 141 380Q78 380 50 404T23 473Q23 557 159 568Q227 573 253 586T279 624Q279 659 212 659Q138 659 125 606H65Q72 655 113 682T212 709ZM262 544Q243 528 172 524Q123 522 103 507T83 467Q83 450 99 440T141 430Q162 430 190 437T232 460T253 504L264 544Z" horiz-adv-x="308" unicode="ª"/>
			<glyph d="M236 442L215 357L95 289L182 199L163 114L40 250L62 342ZM432 442L411 357L291 289L378 199L359 114L236 250L258 342Z" horiz-adv-x="471" unicode="«"/>
			<glyph d="M47 388H551V109H483V320H47Z" horiz-adv-x="598" unicode="¬"/>
			<glyph d="M49 318H339L323 238H33Z" horiz-adv-x="402" unicode="­"/>
			<glyph d="M399 731Q500 731 586 682T723 547T774 359Q774 256 724 168T587 32T399 -17Q240 -17 131 93T22 359Q22 459 73 546T211 682T399 731ZM398 676Q267 676 178 584T90 359Q90 223 179 130T399 38Q485 38 555 80T666 196T706 359Q706 495 617 585T398 676ZM253 576H426Q575 576 575 451Q575 343 460 332L585 139H512L393 327H321V139H253ZM321 521V382H399Q462 382 484 399T507 454Q507 521 415 521Z" horiz-adv-x="798" unicode="®"/>
			<glyph d="M40 682H309L298 627H28Z" horiz-adv-x="205" unicode="¯"/>
			<glyph d="M253 709Q314 709 357 666T401 561Q401 500 358 456T253 413Q189 413 147 456T105 561Q105 622 147 665T253 709ZM253 659Q212 659 183 632T155 561Q155 521 182 492T253 463Q294 463 322 490T351 561Q351 607 321 633T253 659Z" horiz-adv-x="403" unicode="°"/>
			<glyph d="M265 505H333V339H551V271H333V104H265V271H47V339H265ZM47 68H551V0H47Z" horiz-adv-x="598" unicode="±"/>
			<glyph d="M225 709Q284 709 321 677T359 594Q359 547 331 514T252 452L158 399Q129 382 109 365T86 335H317L307 280H11Q11 328 33 364T129 447L227 507Q254 524 272 545T291 591Q291 621 272 637T220 654Q181 654 153 631T122 561H54Q61 628 104 668T225 709Z" horiz-adv-x="330" unicode="²"/>
			<glyph d="M228 709Q292 709 329 680T367 601Q367 566 342 539T279 503V501Q312 490 328 466T344 412Q344 357 296 315T172 273Q96 273 59 307T23 403V413H91V403Q91 361 111 344T174 328Q219 328 247 349T276 413Q276 445 257 461T193 478L166 477L175 527L196 526Q245 526 272 545T299 600Q299 632 277 643T225 654Q186 654 162 632T136 576H68Q71 634 113 671T228 709Z" horiz-adv-x="342" unicode="³"/>
			<glyph d="M190 732H303L167 589H97Z" horiz-adv-x="200" unicode="´"/>
			<glyph d="M97 517H182L119 226Q104 158 104 135Q104 101 128 82T193 63Q237 63 275 86T340 147T376 230L437 517H522L413 0H331L347 78H345Q272 -12 174 -12Q117 -12 82 23H80L33 -198H-52Z" horiz-adv-x="547" unicode="µ"/>
			<glyph d="M334 714H578L397 -155H333L502 659H376L207 -155H142L244 336Q163 336 116 378T69 486Q69 591 144 652T334 714Z" horiz-adv-x="599" unicode="¶"/>
			<glyph d="M125 317Q152 317 170 298T189 253Q189 226 171 207T125 189Q99 189 80 208T61 253Q61 279 80 298T125 317Z" horiz-adv-x="274" unicode="·"/>
			<glyph d="M45 0H93L42 -54L43 -55Q57 -50 76 -50Q114 -50 136 -70T159 -123Q159 -162 126 -186T40 -210Q-14 -210 -58 -188L-40 -145Q-4 -160 30 -160Q84 -160 84 -129Q84 -99 39 -99Q15 -99 -4 -107L-23 -77Z" horiz-adv-x="206" unicode="¸"/>
			<glyph d="M263 709H310L220 280H154L220 605Q190 595 163 591T103 588L112 638Q166 638 206 659T263 709Z" horiz-adv-x="346" unicode="¹"/>
			<glyph d="M226 709Q294 709 330 675T367 579Q367 497 314 438T181 380Q113 380 74 413T36 512Q36 594 89 651T226 709ZM221 659Q169 659 132 616T96 513Q96 477 117 453T181 430Q233 430 270 472T307 575Q307 615 284 637T221 659Z" horiz-adv-x="331" unicode="º"/>
			<glyph d="M84 442L207 306L185 214L11 114L32 199L152 267L65 357ZM280 442L403 306L381 214L207 114L228 199L348 267L261 357Z" horiz-adv-x="471" unicode="»"/>
			<glyph d="M589 725H653L218 -28H154ZM269 709H316L226 280H160L226 605Q196 595 169 591T109 588L118 638Q172 638 212 659T269 709ZM722 429H780L716 151H777L764 96H704L682 0H619L641 96H442L453 154ZM690 332L512 151H651L692 332Z" horiz-adv-x="839" unicode="¼"/>
			<glyph d="M571 725H635L200 -28H136ZM251 709H298L208 280H142L208 605Q178 595 151 591T91 588L100 638Q154 638 194 659T251 709ZM657 429Q716 429 753 397T791 314Q791 267 763 234T684 172L590 119Q561 102 541 85T518 55H749L739 0H443Q443 48 465 84T561 167L659 227Q686 244 704 265T723 311Q723 341 704 357T651 374Q606 374 581 348T554 281H486Q493 348 536 388T657 429Z" horiz-adv-x="809" unicode="½"/>
			<glyph d="M633 725H697L262 -28H198ZM221 709Q285 709 322 680T360 601Q360 566 335 539T272 503V501Q305 490 321 466T337 412Q337 357 289 315T165 273Q89 273 52 307T16 403V413H84V403Q84 361 104 344T167 328Q212 328 240 349T269 413Q269 445 250 461T186 478L159 477L168 527L189 526Q238 526 265 545T292 600Q292 632 270 643T218 654Q179 654 155 632T129 576H61Q64 634 106 671T221 709ZM729 429H787L723 151H784L771 96H711L689 0H626L648 96H449L460 154ZM697 332L519 151H658L699 332Z" horiz-adv-x="846" unicode="¾"/>
			<glyph d="M255 517H368L343 406H233ZM231 332H314Q302 255 270 210T176 123Q112 81 89 46T66 -25Q66 -71 97 -103T177 -135Q310 -135 341 25H426Q413 -86 346 -148T174 -210Q88 -210 32 -160T-24 -32Q-24 26 8 73T107 166Q170 208 198 244T231 332Z" horiz-adv-x="544" unicode="¿"/>
			<glyph d="M344 714H448L577 0H479L446 215H145L20 0H-86ZM379 630L188 295H434L381 630ZM279 922H380L447 779H380Z" horiz-adv-x="646" unicode="À"/>
			<glyph d="M344 714H448L577 0H479L446 215H145L20 0H-86ZM379 630L188 295H434L381 630ZM440 922H553L417 779H347Z" horiz-adv-x="646" unicode="Á"/>
			<glyph d="M344 714H448L577 0H479L446 215H145L20 0H-86ZM379 630L188 295H434L381 630ZM384 922H470L545 779H471L420 872L333 779H251Z" horiz-adv-x="646" unicode="Â"/>
			<glyph d="M344 714H448L577 0H479L446 215H145L20 0H-86ZM379 630L188 295H434L381 630ZM522 907H574Q555 846 527 821T462 796Q439 796 420 803T376 822Q347 835 325 835Q290 835 272 793H220Q253 903 336 903Q366 903 408 883T472 863Q503 863 522 907Z" horiz-adv-x="646" unicode="Ã"/>
			<glyph d="M344 714H448L577 0H479L446 215H145L20 0H-86ZM379 630L188 295H434L381 630ZM308 896H397L376 792H287ZM471 896H560L539 792H450Z" horiz-adv-x="646" unicode="Ä"/>
			<glyph d="M344 714H448L577 0H479L446 215H145L20 0H-86ZM379 630L188 295H434L381 630ZM408 973Q457 972 488 939T521 860Q521 813 487 780T408 747Q364 747 330 780T295 860Q296 907 329 939T408 973ZM407 928Q379 928 360 909T340 860Q340 831 360 811T408 792Q437 792 456 811T476 860Q476 889 457 908T407 928Z" horiz-adv-x="646" unicode="Å"/>
			<glyph d="M465 714H989L972 634H621L574 407H904L886 327H557L504 80H861L845 0H390L433 208H203L54 0H-55ZM504 634L259 288H451L526 634Z" horiz-adv-x="1005" unicode="Æ"/>
			<glyph d="M419 731Q545 731 618 664T691 484H596Q596 565 548 608T419 651Q288 651 205 549T122 296Q122 187 175 125T333 63Q503 63 554 241H649Q588 -17 336 -17L307 -16L272 -54L273 -55Q286 -50 306 -50Q343 -50 366 -70T389 -123Q389 -161 357 -185T270 -210Q216 -210 172 -188L190 -145Q224 -160 260 -160Q314 -160 314 -129Q314 -99 269 -99Q245 -99 226 -107L207 -77L264 -11Q148 8 87 87T27 296Q27 415 77 515T216 673T419 731Z" horiz-adv-x="705" unicode="Ç"/>
			<glyph d="M148 714H640L624 634H227L179 407H549L533 327H162L110 80H512L494 0H-3ZM300 922H401L468 779H401Z" horiz-adv-x="610" unicode="È"/>
			<glyph d="M148 714H640L624 634H227L179 407H549L533 327H162L110 80H512L494 0H-3ZM455 922H568L432 779H362Z" horiz-adv-x="610" unicode="É"/>
			<glyph d="M148 714H640L624 634H227L179 407H549L533 327H162L110 80H512L494 0H-3ZM383 922H469L544 779H470L419 872L332 779H250Z" horiz-adv-x="610" unicode="Ê"/>
			<glyph d="M148 714H640L624 634H227L179 407H549L533 327H162L110 80H512L494 0H-3ZM295 896H384L363 792H274ZM458 896H547L526 792H437Z" horiz-adv-x="610" unicode="Ë"/>
			<glyph d="M147 714H242L92 0H-3ZM78 922H179L246 779H179Z" horiz-adv-x="232" unicode="Ì"/>
			<glyph d="M147 714H242L92 0H-3ZM239 922H352L216 779H146Z" horiz-adv-x="226" unicode="Í"/>
			<glyph d="M147 714H242L92 0H-3ZM191 922H277L352 779H278L227 872L140 779H58Z" horiz-adv-x="232" unicode="Î"/>
			<glyph d="M147 714H242L92 0H-3ZM104 896H193L172 792H83ZM267 896H356L335 792H246Z" horiz-adv-x="232" unicode="Ï"/>
			<glyph d="M148 714H403Q530 714 599 641T668 440Q668 243 560 121T271 0H-3L69 339H3L17 407H83ZM224 634L176 407H376L362 339H162L107 80H277Q408 80 490 181T573 431Q573 634 381 634Z" horiz-adv-x="689" unicode="Ð"/>
			<glyph d="M148 714H250L505 123H507L626 714H718L567 0H465L212 587H210L89 0H-3ZM576 907H628Q609 846 581 821T516 796Q493 796 474 803T430 822Q401 835 379 835Q344 835 326 793H274Q307 903 390 903Q420 903 462 883T526 863Q557 863 576 907Z" horiz-adv-x="708" unicode="Ñ"/>
			<glyph d="M419 731Q551 731 634 642T717 415Q717 299 668 199T531 41T333 -17Q188 -17 107 65T27 296Q27 483 137 607T419 731ZM418 651Q288 651 205 549T122 296Q122 187 175 125T333 63Q416 63 481 109T584 238T622 415Q622 521 566 586T418 651ZM314 922H415L482 779H415Z" horiz-adv-x="742" unicode="Ò"/>
			<glyph d="M419 731Q551 731 634 642T717 415Q717 299 668 199T531 41T333 -17Q188 -17 107 65T27 296Q27 483 137 607T419 731ZM418 651Q288 651 205 549T122 296Q122 187 175 125T333 63Q416 63 481 109T584 238T622 415Q622 521 566 586T418 651ZM474 922H587L451 779H381Z" horiz-adv-x="742" unicode="Ó"/>
			<glyph d="M419 731Q551 731 634 642T717 415Q717 299 668 199T531 41T333 -17Q188 -17 107 65T27 296Q27 483 137 607T419 731ZM418 651Q288 651 205 549T122 296Q122 187 175 125T333 63Q416 63 481 109T584 238T622 415Q622 521 566 586T418 651ZM433 922H519L594 779H520L469 872L382 779H300Z" horiz-adv-x="742" unicode="Ô"/>
			<glyph d="M419 731Q551 731 634 642T717 415Q717 299 668 199T531 41T333 -17Q188 -17 107 65T27 296Q27 483 137 607T419 731ZM418 651Q288 651 205 549T122 296Q122 187 175 125T333 63Q416 63 481 109T584 238T622 415Q622 521 566 586T418 651ZM580 907H632Q613 846 585 821T520 796Q497 796 478 803T434 822Q405 835 383 835Q348 835 330 793H278Q311 903 394 903Q424 903 466 883T530 863Q561 863 580 907Z" horiz-adv-x="742" unicode="Õ"/>
			<glyph d="M419 731Q551 731 634 642T717 415Q717 299 668 199T531 41T333 -17Q188 -17 107 65T27 296Q27 483 137 607T419 731ZM418 651Q288 651 205 549T122 296Q122 187 175 125T333 63Q416 63 481 109T584 238T622 415Q622 521 566 586T418 651ZM337 896H426L405 792H316ZM500 896H589L568 792H479Z" horiz-adv-x="742" unicode="Ö"/>
			<glyph d="M118 482L299 302L479 482L527 434L347 254L528 72L480 24L299 206L117 24L69 72L251 254L70 434Z" horiz-adv-x="598" unicode="×"/>
			<glyph d="M735 733L764 701L664 606Q718 525 718 415Q718 298 668 197T531 40T334 -17Q188 -17 105 71H102L7 -22L-22 10L78 106Q28 186 28 296Q28 415 77 516T216 674T420 731Q554 731 637 640ZM419 651Q288 651 205 548T123 296Q123 225 148 173L573 579Q517 651 419 651ZM596 541L171 135Q228 63 334 63Q418 63 484 110T586 238T623 415Q623 489 596 541Z" horiz-adv-x="743" unicode="Ø"/>
			<glyph d="M129 714H224L130 270Q122 233 122 205Q122 135 166 99T299 63Q366 63 409 86T476 156Q498 199 527 334L607 714H702L613 285Q586 155 560 114T498 44T410 -1T298 -17Q165 -17 97 41T30 206Q30 207 30 226T38 285ZM281 922H382L449 779H382Z" horiz-adv-x="677" unicode="Ù"/>
			<glyph d="M129 714H224L130 270Q122 233 122 205Q122 135 166 99T299 63Q366 63 409 86T476 156Q498 199 527 334L607 714H702L613 285Q586 155 560 114T498 44T410 -1T298 -17Q165 -17 97 41T30 206Q30 207 30 226T38 285ZM472 922H585L449 779H379Z" horiz-adv-x="677" unicode="Ú"/>
			<glyph d="M129 714H224L130 270Q122 233 122 205Q122 135 166 99T299 63Q366 63 409 86T476 156Q498 199 527 334L607 714H702L613 285Q586 155 560 114T498 44T410 -1T298 -17Q165 -17 97 41T30 206Q30 207 30 226T38 285ZM410 922H496L571 779H497L446 872L359 779H277Z" horiz-adv-x="677" unicode="Û"/>
			<glyph d="M129 714H224L130 270Q122 233 122 205Q122 135 166 99T299 63Q366 63 409 86T476 156Q498 199 527 334L607 714H702L613 285Q586 155 560 114T498 44T410 -1T298 -17Q165 -17 97 41T30 206Q30 207 30 226T38 285ZM314 896H403L382 792H293ZM477 896H566L545 792H456Z" horiz-adv-x="677" unicode="Ü"/>
			<glyph d="M63 714H164L310 368L581 714H691L345 287L283 0H190L251 287ZM449 922H562L426 779H356Z" horiz-adv-x="607" unicode="Ý"/>
			<glyph d="M146 714H241L218 600H402Q614 600 614 403Q614 301 538 239T346 178H129L92 0H-3ZM201 520L146 258H365Q432 258 475 296T519 403Q519 462 488 491T405 520Z" horiz-adv-x="631" unicode="Þ"/>
			<glyph d="M319 731Q405 731 455 692T506 581Q506 512 464 459T357 397V395Q412 385 441 344T470 248Q470 141 398 64T220 -12Q180 -12 148 -7L162 65L187 62Q275 62 330 111T385 241Q385 301 351 329T240 357H224L239 427H251Q331 427 376 463T421 564Q421 604 392 630T323 656Q262 656 227 617T177 493L73 0H-13L94 506Q119 624 172 677T319 731Z" horiz-adv-x="531" unicode="ß"/>
			<glyph d="M266 529Q455 529 455 397Q455 375 445 327L399 131Q392 104 392 88Q392 56 417 56Q423 56 444 63L431 0Q410 -10 379 -12Q312 -11 311 51Q311 56 312 61L310 63Q279 22 237 5T137 -12Q60 -12 19 27T-21 134Q-21 191 6 225T82 277T240 304Q299 307 325 316T361 342T370 386Q370 420 341 437T266 454Q210 454 172 430T127 361H42Q54 440 114 484T266 529ZM345 264Q318 245 244 237Q138 228 101 205T64 135Q64 102 91 82T157 63Q209 63 245 81T304 132T347 264ZM196 732H297L364 589H297Z" horiz-adv-x="508" unicode="à"/>
			<glyph d="M266 529Q455 529 455 397Q455 375 445 327L399 131Q392 104 392 88Q392 56 417 56Q423 56 444 63L431 0Q410 -10 379 -12Q312 -11 311 51Q311 56 312 61L310 63Q279 22 237 5T137 -12Q60 -12 19 27T-21 134Q-21 191 6 225T82 277T240 304Q299 307 325 316T361 342T370 386Q370 420 341 437T266 454Q210 454 172 430T127 361H42Q54 440 114 484T266 529ZM345 264Q318 245 244 237Q138 228 101 205T64 135Q64 102 91 82T157 63Q209 63 245 81T304 132T347 264ZM353 732H466L330 589H260Z" horiz-adv-x="508" unicode="á"/>
			<glyph d="M266 529Q455 529 455 397Q455 375 445 327L399 131Q392 104 392 88Q392 56 417 56Q423 56 444 63L431 0Q410 -10 379 -12Q312 -11 311 51Q311 56 312 61L310 63Q279 22 237 5T137 -12Q60 -12 19 27T-21 134Q-21 191 6 225T82 277T240 304Q299 307 325 316T361 342T370 386Q370 420 341 437T266 454Q210 454 172 430T127 361H42Q54 440 114 484T266 529ZM345 264Q318 245 244 237Q138 228 101 205T64 135Q64 102 91 82T157 63Q209 63 245 81T304 132T347 264ZM271 732H357L432 589H358L307 682L220 589H138Z" horiz-adv-x="508" unicode="â"/>
			<glyph d="M266 529Q455 529 455 397Q455 375 445 327L399 131Q392 104 392 88Q392 56 417 56Q423 56 444 63L431 0Q410 -10 379 -12Q312 -11 311 51Q311 56 312 61L310 63Q279 22 237 5T137 -12Q60 -12 19 27T-21 134Q-21 191 6 225T82 277T240 304Q299 307 325 316T361 342T370 386Q370 420 341 437T266 454Q210 454 172 430T127 361H42Q54 440 114 484T266 529ZM345 264Q318 245 244 237Q138 228 101 205T64 135Q64 102 91 82T157 63Q209 63 245 81T304 132T347 264ZM419 718H471Q441 607 359 607Q336 607 314 615T267 635T222 646Q187 646 169 604H117Q150 714 233 714Q261 714 305 694T369 674Q400 674 419 718Z" horiz-adv-x="508" unicode="ã"/>
			<glyph d="M266 529Q455 529 455 397Q455 375 445 327L399 131Q392 104 392 88Q392 56 417 56Q423 56 444 63L431 0Q410 -10 379 -12Q312 -11 311 51Q311 56 312 61L310 63Q279 22 237 5T137 -12Q60 -12 19 27T-21 134Q-21 191 6 225T82 277T240 304Q299 307 325 316T361 342T370 386Q370 420 341 437T266 454Q210 454 172 430T127 361H42Q54 440 114 484T266 529ZM345 264Q318 245 244 237Q138 228 101 205T64 135Q64 102 91 82T157 63Q209 63 245 81T304 132T347 264ZM186 706H275L254 602H165ZM349 706H438L417 602H328Z" horiz-adv-x="508" unicode="ä"/>
			<glyph d="M266 529Q455 529 455 397Q455 375 445 327L399 131Q392 104 392 88Q392 56 417 56Q423 56 444 63L431 0Q410 -10 379 -12Q312 -11 311 51Q311 56 312 61L310 63Q279 22 237 5T137 -12Q60 -12 19 27T-21 134Q-21 191 6 225T82 277T240 304Q299 307 325 316T361 342T370 386Q370 420 341 437T266 454Q210 454 172 430T127 361H42Q54 440 114 484T266 529ZM345 264Q318 245 244 237Q138 228 101 205T64 135Q64 102 91 82T157 63Q209 63 245 81T304 132T347 264ZM306 787Q350 787 384 753T419 674Q419 627 384 594T306 561Q259 561 226 595T193 674Q193 721 227 754T306 787ZM305 742Q277 742 257 722T238 674Q238 645 257 625T306 606Q335 606 354 625T374 674Q374 703 355 722T305 742Z" horiz-adv-x="508" unicode="å"/>
			<glyph d="M281 529Q406 529 446 448Q505 529 611 529Q710 529 760 476T810 327Q810 287 796 233H421Q416 205 416 182Q416 127 449 95T540 63Q650 63 693 162H780Q749 79 685 33T533 -12Q386 -12 351 100Q287 -12 148 -12Q-19 -12 -19 132Q-19 204 34 243T205 293Q303 300 338 321T374 385Q374 454 261 454Q158 454 133 362H50Q64 445 124 487T281 529ZM606 454Q546 454 499 414T435 308H725L727 333Q727 390 695 422T606 454ZM348 266Q315 250 232 238Q125 224 96 200T66 132Q66 99 91 81T162 63Q238 63 283 104T348 266Z" horiz-adv-x="856" unicode="æ"/>
			<glyph d="M299 529Q487 529 493 353H408Q408 401 379 427T299 454Q213 454 155 383T98 211Q98 139 130 101T226 63Q279 63 318 90T377 169H462Q438 81 377 34T222 -12H211L171 -54L172 -55Q185 -50 205 -50Q242 -50 265 -70T288 -123Q288 -161 256 -185T169 -210Q115 -210 71 -188L89 -145Q123 -160 159 -160Q213 -160 213 -129Q213 -99 168 -99Q144 -99 125 -107L106 -77L168 -6Q13 24 13 211Q13 348 92 438T299 529Z" horiz-adv-x="522" unicode="ç"/>
			<glyph d="M279 529Q496 529 498 301Q498 288 495 265T490 233H101Q98 208 98 188Q98 133 137 98T232 63Q289 63 326 89T381 162H466Q445 77 381 32T232 -12Q160 -12 109 16T36 92T13 197Q13 293 51 371T150 489T279 529ZM291 454Q160 454 113 308H413L414 322Q414 383 382 418T291 454ZM187 732H288L355 589H288Z" horiz-adv-x="549" unicode="è"/>
			<glyph d="M279 529Q496 529 498 301Q498 288 495 265T490 233H101Q98 208 98 188Q98 133 137 98T232 63Q289 63 326 89T381 162H466Q445 77 381 32T232 -12Q160 -12 109 16T36 92T13 197Q13 293 51 371T150 489T279 529ZM291 454Q160 454 113 308H413L414 322Q414 383 382 418T291 454ZM368 732H481L345 589H275Z" horiz-adv-x="549" unicode="é"/>
			<glyph d="M279 529Q496 529 498 301Q498 288 495 265T490 233H101Q98 208 98 188Q98 133 137 98T232 63Q289 63 326 89T381 162H466Q445 77 381 32T232 -12Q160 -12 109 16T36 92T13 197Q13 293 51 371T150 489T279 529ZM291 454Q160 454 113 308H413L414 322Q414 383 382 418T291 454ZM288 732H374L449 589H375L324 682L237 589H155Z" horiz-adv-x="549" unicode="ê"/>
			<glyph d="M279 529Q496 529 498 301Q498 288 495 265T490 233H101Q98 208 98 188Q98 133 137 98T232 63Q289 63 326 89T381 162H466Q445 77 381 32T232 -12Q160 -12 109 16T36 92T13 197Q13 293 51 371T150 489T279 529ZM291 454Q160 454 113 308H413L414 322Q414 383 382 418T291 454ZM208 706H297L276 602H187ZM371 706H460L439 602H350Z" horiz-adv-x="549" unicode="ë"/>
			<glyph d="M95 517H180L72 0H-13ZM12 732H113L180 589H113Z" horiz-adv-x="203" unicode="ì"/>
			<glyph d="M95 517H180L72 0H-13ZM189 732H302L166 589H96Z" horiz-adv-x="203" unicode="í"/>
			<glyph d="M95 517H180L72 0H-13ZM132 732H218L293 589H219L168 682L81 589H-1Z" horiz-adv-x="198" unicode="î"/>
			<glyph d="M95 517H180L72 0H-13ZM49 706H138L117 602H28ZM212 706H301L280 602H191Z" horiz-adv-x="203" unicode="ï"/>
			<glyph d="M462 734L506 696L398 641Q468 575 497 508T527 342Q527 184 447 86T233 -12Q136 -12 75 46T15 200Q15 330 96 418T304 506Q386 506 433 453H435Q426 486 394 532T326 605L212 548L170 588L283 644L253 667L224 686L288 731Q314 715 357 681ZM297 431Q215 431 157 361T100 200Q100 136 138 99T242 63Q322 63 379 136T437 299Q437 361 400 396T297 431ZZ" horiz-adv-x="558" unicode="ð"/>
			<glyph d="M348 529Q422 529 457 497T492 396Q492 369 487 343T479 303L414 0H329L401 334Q407 362 407 382Q407 416 382 435T317 454Q258 454 203 408T133 288L72 0H-13L96 517H178L162 439H164Q231 527 348 529ZM458 718H510Q480 607 398 607Q375 607 353 615T306 635T261 646Q226 646 208 604H156Q189 714 272 714Q300 714 344 694T408 674Q439 674 458 718Z" horiz-adv-x="547" unicode="ñ"/>
			<glyph d="M303 529Q409 529 463 473T518 315Q518 177 438 82T232 -12Q133 -12 73 48T14 205Q14 292 51 367T153 486T303 529ZM296 454Q214 454 156 380T99 205Q99 136 137 99T241 63Q295 63 338 98T407 191T433 308Q433 373 397 413T296 454ZM200 732H301L368 589H301Z" horiz-adv-x="568" unicode="ò"/>
			<glyph d="M303 529Q409 529 463 473T518 315Q518 177 438 82T232 -12Q133 -12 73 48T14 205Q14 292 51 367T153 486T303 529ZM296 454Q214 454 156 380T99 205Q99 136 137 99T241 63Q295 63 338 98T407 191T433 308Q433 373 397 413T296 454ZM382 732H495L359 589H289Z" horiz-adv-x="568" unicode="ó"/>
			<glyph d="M303 529Q409 529 463 473T518 315Q518 177 438 82T232 -12Q133 -12 73 48T14 205Q14 292 51 367T153 486T303 529ZM296 454Q214 454 156 380T99 205Q99 136 137 99T241 63Q295 63 338 98T407 191T433 308Q433 373 397 413T296 454ZM314 732H400L475 589H401L350 682L263 589H181Z" horiz-adv-x="568" unicode="ô"/>
			<glyph d="M303 529Q409 529 463 473T518 315Q518 177 438 82T232 -12Q133 -12 73 48T14 205Q14 292 51 367T153 486T303 529ZM296 454Q214 454 156 380T99 205Q99 136 137 99T241 63Q295 63 338 98T407 191T433 308Q433 373 397 413T296 454ZM470 718H522Q492 607 410 607Q387 607 365 615T318 635T273 646Q238 646 220 604H168Q201 714 284 714Q312 714 356 694T420 674Q451 674 470 718Z" horiz-adv-x="568" unicode="õ"/>
			<glyph d="M303 529Q409 529 463 473T518 315Q518 177 438 82T232 -12Q133 -12 73 48T14 205Q14 292 51 367T153 486T303 529ZM296 454Q214 454 156 380T99 205Q99 136 137 99T241 63Q295 63 338 98T407 191T433 308Q433 373 397 413T296 454ZM222 706H311L290 602H201ZM385 706H474L453 602H364Z" horiz-adv-x="568" unicode="ö"/>
			<glyph d="M299 523Q326 523 344 503T363 459Q363 434 342 414T300 395Q274 395 254 414T235 459Q235 484 253 503T299 523ZM47 287H551V219H47ZM299 111Q325 111 344 92T363 47Q363 22 342 2T300 -17Q274 -17 254 2T235 47Q235 73 254 92T299 111Z" horiz-adv-x="598" unicode="÷"/>
			<glyph d="M320 529Q431 529 485 466L555 529L580 501L507 435Q535 388 535 315Q535 180 455 84T249 -12Q137 -12 83 53L8 -15L-16 13L61 83Q31 132 31 204Q31 344 113 436T320 529ZM313 454Q228 454 172 379T116 205Q116 167 126 142H127L422 409Q381 454 313 454ZM439 374L144 108Q182 63 258 63Q311 63 354 96T424 188T450 308Q450 345 439 374Z" horiz-adv-x="602" unicode="ø"/>
			<glyph d="M88 517H173L104 199Q95 158 95 135Q95 101 119 82T185 63Q253 63 303 112T370 230L430 517H515L406 0H324L340 78H338Q270 -10 154 -12Q78 -12 44 21T10 121Q10 153 24 220ZM180 732H281L348 589H281Z" unicode="ù"/>
			<glyph d="M88 517H173L104 199Q95 158 95 135Q95 101 119 82T185 63Q253 63 303 112T370 230L430 517H515L406 0H324L340 78H338Q270 -10 154 -12Q78 -12 44 21T10 121Q10 153 24 220ZM363 732H476L340 589H270Z" unicode="ú"/>
			<glyph d="M88 517H173L104 199Q95 158 95 135Q95 101 119 82T185 63Q253 63 303 112T370 230L430 517H515L406 0H324L340 78H338Q270 -10 154 -12Q78 -12 44 21T10 121Q10 153 24 220ZM297 732H383L458 589H384L333 682L246 589H164Z" unicode="û"/>
			<glyph d="M88 517H173L104 199Q95 158 95 135Q95 101 119 82T185 63Q253 63 303 112T370 230L430 517H515L406 0H324L340 78H338Q270 -10 154 -12Q78 -12 44 21T10 121Q10 153 24 220ZM203 706H292L271 602H182ZM366 706H455L434 602H345Z" unicode="ü"/>
			<glyph d="M29 517H120L180 106H182L399 517H492L150 -88Q144 -99 117 -136T61 -190T-16 -210Q-34 -210 -52 -205T-76 -197L-61 -128Q-38 -142 -12 -142Q33 -142 61 -97L120 0ZM334 732H447L311 589H241Z" horiz-adv-x="457" unicode="ý"/>
			<glyph d="M139 714H224L161 443H163Q196 488 236 508T334 529Q428 529 482 472T537 317Q537 231 499 154T395 32T250 -12Q187 -12 144 12T89 79H87L32 -198H-52ZM318 454Q236 454 176 376T117 197Q117 137 151 100T247 63Q333 63 392 137T452 317Q452 454 318 454Z" horiz-adv-x="580" unicode="þ"/>
			<glyph d="M29 517H120L180 106H182L399 517H492L150 -88Q144 -99 117 -136T61 -190T-16 -210Q-34 -210 -52 -205T-76 -197L-61 -128Q-38 -142 -12 -142Q33 -142 61 -97L120 0ZM168 706H257L236 602H147ZM331 706H420L399 602H310Z" horiz-adv-x="457" unicode="ÿ"/>
			<glyph d="M344 714H448L577 0H479L446 215H145L20 0H-86ZM379 630L188 295H434L381 630ZM278 872H547L536 817H266Z" horiz-adv-x="646" unicode="Ā"/>
			<glyph d="M266 529Q455 529 455 397Q455 375 445 327L399 131Q392 104 392 88Q392 56 417 56Q423 56 444 63L431 0Q410 -10 379 -12Q312 -11 311 51Q311 56 312 61L310 63Q279 22 237 5T137 -12Q60 -12 19 27T-21 134Q-21 191 6 225T82 277T240 304Q299 307 325 316T361 342T370 386Q370 420 341 437T266 454Q210 454 172 430T127 361H42Q54 440 114 484T266 529ZM345 264Q318 245 244 237Q138 228 101 205T64 135Q64 102 91 82T157 63Q209 63 245 81T304 132T347 264ZM184 682H453L442 627H172Z" horiz-adv-x="508" unicode="ā"/>
			<glyph d="M344 714H448L577 0H479L446 215H145L20 0H-86ZM379 630L188 295H434L381 630ZM260 920H305Q304 836 398 836Q449 836 475 855T516 920H561Q553 856 508 819T395 781Q329 781 295 814T260 910Z" horiz-adv-x="646" unicode="Ă"/>
			<glyph d="M266 529Q455 529 455 397Q455 375 445 327L399 131Q392 104 392 88Q392 56 417 56Q423 56 444 63L431 0Q410 -10 379 -12Q312 -11 311 51Q311 56 312 61L310 63Q279 22 237 5T137 -12Q60 -12 19 27T-21 134Q-21 191 6 225T82 277T240 304Q299 307 325 316T361 342T370 386Q370 420 341 437T266 454Q210 454 172 430T127 361H42Q54 440 114 484T266 529ZM345 264Q318 245 244 237Q138 228 101 205T64 135Q64 102 91 82T157 63Q209 63 245 81T304 132T347 264ZM163 730H208Q207 646 301 646Q354 646 380 667T419 730H464Q455 665 411 628T298 591Q231 591 197 625T163 720Z" horiz-adv-x="508" unicode="ă"/>
			<glyph d="M344 714H448L577 0H539Q473 -49 451 -74T430 -124Q430 -141 441 -150T468 -160Q498 -160 534 -130L562 -152Q516 -210 447 -210Q407 -210 383 -189T359 -135Q359 -102 382 -75T479 0L446 215H145L20 0H-86ZM379 630L188 295H434L381 630Z" horiz-adv-x="646" unicode="Ą"/>
			<glyph d="M266 529Q365 529 410 494T455 397Q455 375 445 327L399 131Q392 104 392 88Q392 56 417 56Q423 56 444 63L431 0Q401 -12 379 -12H367Q319 -47 296 -74T274 -124Q274 -141 284 -150T312 -160Q343 -160 378 -130L406 -151Q362 -210 291 -210Q250 -210 226 -188T203 -135Q203 -103 232 -70T330 4Q312 23 312 49Q312 55 313 61L310 63Q279 22 237 5T137 -12Q60 -12 19 27T-21 134Q-21 208 29 249T267 307Q328 311 349 328T370 386Q370 420 341 437T266 454Q209 454 171 429T127 361H42Q49 413 80 451T159 509T266 529ZM345 264Q318 245 244 237Q143 229 103 206T64 135Q64 102 91 82T157 63Q212 63 249 83T307 139T347 264Z" horiz-adv-x="508" unicode="ą"/>
			<glyph d="M419 731Q545 731 618 664T691 484H596Q596 565 548 608T419 651Q284 651 203 546T122 296Q122 187 175 125T333 63Q503 63 554 241H649Q620 112 539 47T333 -17Q188 -17 107 65T27 296Q27 480 137 605T419 731ZM492 922H605L469 779H399Z" horiz-adv-x="705" unicode="Ć"/>
			<glyph d="M299 529Q487 529 493 353H408Q408 401 379 427T299 454Q212 454 155 382T98 211Q98 139 130 101T226 63Q279 63 318 90T377 169H462Q438 81 377 34T226 -12Q123 -12 68 45T13 211Q13 348 92 438T299 529ZM370 732H483L347 589H277Z" horiz-adv-x="521" unicode="ć"/>
			<glyph d="M419 731Q545 731 618 664T691 484H596Q596 565 548 608T419 651Q284 651 203 546T122 296Q122 187 175 125T333 63Q503 63 554 241H649Q620 112 539 47T333 -17Q188 -17 107 65T27 296Q27 480 137 605T419 731ZM422 922H508L583 779H509L458 872L371 779H289Z" horiz-adv-x="705" unicode="Ĉ"/>
			<glyph d="M299 529Q487 529 493 353H408Q408 401 379 427T299 454Q212 454 155 382T98 211Q98 139 130 101T226 63Q279 63 318 90T377 169H462Q438 81 377 34T226 -12Q123 -12 68 45T13 211Q13 348 92 438T299 529ZM294 732H380L455 589H381L330 682L243 589H161Z" horiz-adv-x="521" unicode="ĉ"/>
			<glyph d="M419 731Q545 731 618 664T691 484H596Q596 565 548 608T419 651Q284 651 203 546T122 296Q122 187 175 125T333 63Q503 63 554 241H649Q620 112 539 47T333 -17Q188 -17 107 65T27 296Q27 480 137 605T419 731ZM405 896H494L473 792H384Z" horiz-adv-x="705" unicode="Ċ"/>
			<glyph d="M299 529Q487 529 493 353H408Q408 401 379 427T299 454Q212 454 155 382T98 211Q98 139 130 101T226 63Q279 63 318 90T377 169H462Q438 81 377 34T226 -12Q123 -12 68 45T13 211Q13 348 92 438T299 529ZM287 706H376L355 602H266Z" horiz-adv-x="521" unicode="ċ"/>
			<glyph d="M419 731Q545 731 618 664T691 484H596Q596 565 548 608T419 651Q284 651 203 546T122 296Q122 187 175 125T333 63Q503 63 554 241H649Q620 112 539 47T333 -17Q188 -17 107 65T27 296Q27 480 137 605T419 731ZM312 922H388L439 829L532 922H610L475 779H389Z" horiz-adv-x="705" unicode="Č"/>
			<glyph d="M299 529Q487 529 493 353H408Q408 401 379 427T299 454Q212 454 155 382T98 211Q98 139 130 101T226 63Q279 63 318 90T377 169H462Q438 81 377 34T226 -12Q123 -12 68 45T13 211Q13 348 92 438T299 529ZM191 732H267L318 639L411 732H489L354 589H268Z" horiz-adv-x="521" unicode="č"/>
			<glyph d="M148 714H403Q530 714 599 641T668 440Q668 243 560 121T271 0H-3ZM224 634L107 80H277Q408 80 490 181T573 431Q573 634 381 634ZM256 922H332L383 829L476 922H554L419 779H333Z" horiz-adv-x="689" unicode="Ď"/>
			<glyph d="M518 714H602L451 0H371L389 74H387Q354 29 314 8T216 -12Q121 -12 67 45T13 200Q13 286 51 363T155 484T300 529Q361 529 404 506T461 438H463ZM302 454Q215 454 156 379T98 200Q98 63 230 63Q285 63 331 98T405 196T433 320Q433 380 398 417T302 454ZM679 714H792L692 571H626Z" horiz-adv-x="666" unicode="ď"/>
			<glyph d="M148 714H403Q530 714 599 641T668 440Q668 243 560 121T271 0H-3L69 339H3L17 407H83ZM224 634L176 407H376L362 339H162L107 80H277Q408 80 490 181T573 431Q573 634 381 634Z" horiz-adv-x="689" unicode="Đ"/>
			<glyph d="M518 714H602L583 626H667L656 571H572L451 0H371L389 74H387Q354 29 314 8T216 -12Q121 -12 67 45T13 200Q13 335 95 432T300 529Q361 529 404 506T461 438H463L489 571H371L383 626H500ZM302 454Q215 454 156 379T98 200Q98 63 230 63Q316 63 374 143T433 320Q433 380 398 417T302 454Z" horiz-adv-x="593" unicode="đ"/>
			<glyph d="M148 714H640L624 634H227L179 407H549L533 327H162L110 80H512L494 0H-3ZM279 872H548L537 817H267Z" horiz-adv-x="610" unicode="Ē"/>
			<glyph d="M279 529Q496 529 498 301Q498 288 495 265T490 233H101Q98 208 98 188Q98 133 137 98T232 63Q289 63 326 89T381 162H466Q445 77 381 32T232 -12Q160 -12 109 16T36 92T13 197Q13 293 51 371T150 489T279 529ZM291 454Q160 454 113 308H413L414 322Q414 383 382 418T291 454ZM190 682H459L448 627H178Z" horiz-adv-x="549" unicode="ē"/>
			<glyph d="M148 714H640L624 634H227L179 407H549L533 327H162L110 80H512L494 0H-3ZM263 920H308Q307 836 401 836Q452 836 478 855T519 920H564Q556 856 511 819T398 781Q332 781 298 814T263 910Z" horiz-adv-x="610" unicode="Ĕ"/>
			<glyph d="M279 529Q496 529 498 301Q498 288 495 265T490 233H101Q98 208 98 188Q98 133 137 98T232 63Q289 63 326 89T381 162H466Q445 77 381 32T232 -12Q160 -12 109 16T36 92T13 197Q13 293 51 371T150 489T279 529ZM291 454Q160 454 113 308H413L414 322Q414 383 382 418T291 454ZM172 730H217Q216 646 310 646Q363 646 389 667T428 730H473Q464 665 420 628T307 591Q240 591 206 625T172 720Z" horiz-adv-x="549" unicode="ĕ"/>
			<glyph d="M148 714H640L624 634H227L179 407H549L533 327H162L110 80H512L494 0H-3ZM381 896H470L449 792H360Z" horiz-adv-x="610" unicode="Ė"/>
			<glyph d="M279 529Q496 529 498 301Q498 288 495 265T490 233H101Q98 208 98 188Q98 133 137 98T232 63Q289 63 326 89T381 162H466Q445 77 381 32T232 -12Q160 -12 109 16T36 92T13 197Q13 293 51 371T150 489T279 529ZM291 454Q160 454 113 308H413L414 322Q414 383 382 418T291 454ZM283 706H372L351 602H262Z" horiz-adv-x="549" unicode="ė"/>
			<glyph d="M148 714H640L624 634H227L179 407H549L533 327H162L110 80H512L494 0H433Q367 -49 345 -74T324 -124Q324 -141 334 -150T362 -160Q391 -160 428 -130L456 -151Q410 -210 341 -210Q301 -210 277 -189T253 -135Q253 -102 276 -75T373 0H-3Z" horiz-adv-x="610" unicode="Ę"/>
			<glyph d="M279 529Q498 529 498 301Q498 286 494 263T490 233H101L98 188Q98 131 137 97T232 63Q343 63 381 162H466Q447 86 394 42T260 -10Q207 -51 186 -76T166 -124Q166 -141 176 -150T204 -160Q233 -160 270 -130L298 -151Q252 -210 183 -210Q141 -210 118 -188T95 -135Q95 -104 119 -74T198 -10Q115 -3 64 52T13 197Q13 337 90 433T279 529ZM291 454Q158 454 113 308H413V322Q413 382 381 418T291 454Z" horiz-adv-x="549" unicode="ę"/>
			<glyph d="M148 714H640L624 634H227L179 407H549L533 327H162L110 80H512L494 0H-3ZM277 922H353L404 829L497 922H575L440 779H354Z" horiz-adv-x="610" unicode="Ě"/>
			<glyph d="M279 529Q496 529 498 301Q498 288 495 265T490 233H101Q98 208 98 188Q98 133 137 98T232 63Q289 63 326 89T381 162H466Q445 77 381 32T232 -12Q160 -12 109 16T36 92T13 197Q13 293 51 371T150 489T279 529ZM291 454Q160 454 113 308H413L414 322Q414 383 382 418T291 454ZM186 732H262L313 639L406 732H484L349 589H263Z" horiz-adv-x="549" unicode="ě"/>
			<glyph d="M418 731Q551 731 628 667T705 492H610Q610 567 557 609T418 651Q282 651 202 547T121 296Q121 187 174 125T332 63Q434 63 497 119T590 296H362L378 376H689L611 0H551L545 71Q461 -17 332 -17Q186 -17 106 66T26 296Q26 484 137 607T418 731ZM427 922H513L588 779H514L463 872L376 779H294Z" horiz-adv-x="735" unicode="Ĝ"/>
			<glyph d="M280 529Q338 529 386 498T444 422H446L462 517H542L449 76Q421 -58 387 -108T303 -184T175 -210Q80 -210 25 -167T-32 -50H53Q57 -94 88 -114T182 -135Q231 -135 266 -115T324 -55T368 73L366 75Q313 -4 205 -4Q116 -4 63 52T11 210Q11 291 46 366T142 485T280 529ZM279 454Q230 454 188 419T121 326T96 210Q96 146 131 108T223 71Q303 71 357 144T411 319Q411 384 376 419T279 454ZM327 732H413L488 589H414L363 682L276 589H194Z" horiz-adv-x="564" unicode="ĝ"/>
			<glyph d="M418 731Q551 731 628 667T705 492H610Q610 567 557 609T418 651Q282 651 202 547T121 296Q121 187 174 125T332 63Q434 63 497 119T590 296H362L378 376H689L611 0H551L545 71Q461 -17 332 -17Q186 -17 106 66T26 296Q26 484 137 607T418 731ZM295 920H340Q339 836 433 836Q484 836 510 855T551 920H596Q588 856 543 819T430 781Q364 781 330 814T295 910Z" horiz-adv-x="735" unicode="Ğ"/>
			<glyph d="M280 529Q338 529 386 498T444 422H446L462 517H542L449 76Q421 -58 387 -108T303 -184T175 -210Q80 -210 25 -167T-32 -50H53Q57 -94 88 -114T182 -135Q231 -135 266 -115T324 -55T368 73L366 75Q313 -4 205 -4Q116 -4 63 52T11 210Q11 291 46 366T142 485T280 529ZM279 454Q230 454 188 419T121 326T96 210Q96 146 131 108T223 71Q303 71 357 144T411 319Q411 384 376 419T279 454ZM196 730H241Q240 646 334 646Q387 646 413 667T452 730H497Q488 665 444 628T331 591Q264 591 230 625T196 720Z" horiz-adv-x="564" unicode="ğ"/>
			<glyph d="M418 731Q551 731 628 667T705 492H610Q610 567 557 609T418 651Q282 651 202 547T121 296Q121 187 174 125T332 63Q434 63 497 119T590 296H362L378 376H689L611 0H551L545 71Q461 -17 332 -17Q186 -17 106 66T26 296Q26 484 137 607T418 731ZM405 896H494L473 792H384Z" horiz-adv-x="735" unicode="Ġ"/>
			<glyph d="M280 529Q338 529 386 498T444 422H446L462 517H542L449 76Q421 -58 387 -108T303 -184T175 -210Q80 -210 25 -167T-32 -50H53Q57 -94 88 -114T182 -135Q231 -135 266 -115T324 -55T368 73L366 75Q313 -4 205 -4Q116 -4 63 52T11 210Q11 291 46 366T142 485T280 529ZM279 454Q230 454 188 419T121 326T96 210Q96 146 131 108T223 71Q303 71 357 144T411 319Q411 384 376 419T279 454ZM301 706H390L369 602H280Z" horiz-adv-x="564" unicode="ġ"/>
			<glyph d="M418 731Q551 731 628 667T705 492H610Q610 567 557 609T418 651Q282 651 202 547T121 296Q121 187 174 125T332 63Q434 63 497 119T590 296H362L378 376H689L611 0H551L545 71Q461 -17 332 -17Q186 -17 106 66T26 296Q26 484 137 607T418 731ZM260 -50H371L358 -122Q349 -170 322 -189T239 -210L247 -175Q270 -170 278 -163T293 -138H241Z" horiz-adv-x="735" unicode="Ģ"/>
			<glyph d="M280 529Q338 529 386 498T444 422H446L462 517H542L449 76Q421 -58 387 -108T303 -184T175 -210Q80 -210 25 -167T-32 -50H53Q57 -94 88 -114T182 -135Q231 -135 266 -115T324 -55T368 73L366 75Q313 -4 205 -4Q116 -4 63 52T11 210Q11 291 46 366T142 485T280 529ZM279 454Q230 454 188 419T121 326T96 210Q96 146 131 108T223 71Q303 71 357 144T411 319Q411 384 376 419T279 454ZM407 786L399 751Q377 746 367 738T353 714H405L386 626H275L290 707Q298 746 324 765T407 786Z" horiz-adv-x="564" unicode="ģ"/>
			<glyph d="M147 714H243L178 407H552L616 714H711L561 0H466L535 327H161L92 0H-3ZM423 922H509L584 779H510L459 872L372 779H290Z" horiz-adv-x="706" unicode="Ĥ"/>
			<glyph d="M138 714H223L162 441L164 439Q231 527 348 529Q422 529 457 497T492 396Q492 375 490 363T478 298L414 0H329L395 303Q406 362 407 382Q407 416 382 435T317 454Q256 454 201 406T132 286L72 0H-13ZM340 922H426L501 779H427L376 872L289 779H207Z" horiz-adv-x="557" unicode="ĥ"/>
			<glyph d="M151 714H247L205 517H579L620 714H715L565 0H470L537 316H163L96 0H1ZM194 462L180 396H554L567 462Z" horiz-adv-x="704" unicode="Ħ"/>
			<glyph d="M165 714H250L230 626H336L325 571H218L189 441L191 439Q258 527 375 529Q450 529 484 496T519 396Q519 363 505 297L441 0H356L422 300Q434 369 434 382Q434 415 411 434T344 454Q290 454 232 410T157 275L99 0H14L135 571H50L62 626H146Z" horiz-adv-x="575" unicode="ħ"/>
			<glyph d="M147 714H242L92 0H-3ZM342 907H394Q375 846 347 821T282 796Q259 796 240 803T196 822Q167 835 145 835Q110 835 92 793H40Q73 903 156 903Q186 903 228 883T292 863Q323 863 342 907Z" horiz-adv-x="253" unicode="Ĩ"/>
			<glyph d="M95 517H180L72 0H-13ZM284 718H336Q306 607 224 607Q201 607 179 615T132 635T87 646Q52 646 34 604H-18Q15 714 98 714Q126 714 170 694T234 674Q265 674 284 718Z" horiz-adv-x="217" unicode="ĩ"/>
			<glyph d="M147 714H242L92 0H-3ZM92 872H361L350 817H80Z" horiz-adv-x="244" unicode="Ī"/>
			<glyph d="M95 517H180L72 0H-13ZM30 682H299L288 627H18Z" horiz-adv-x="203" unicode="ī"/>
			<glyph d="M145 714H240L90 0Q-13 -77 -13 -124Q-13 -141 -3 -150T22 -160Q51 -160 83 -131L111 -152Q68 -210 2 -210Q-37 -210 -59 -189T-82 -135Q-82 -102 -56 -71T30 0H-5Z" horiz-adv-x="235" unicode="Į"/>
			<glyph d="M148 714H234L212 610H126ZM107 517H192L84 0Q26 -45 3 -72T-19 -124Q-19 -141 -9 -150T16 -160Q45 -160 77 -131L105 -152Q61 -210 -5 -210Q-43 -210 -65 -189T-88 -135Q-88 -102 -62 -71T24 0H-1Z" horiz-adv-x="214" unicode="į"/>
			<glyph d="M147 714H242L92 0H-3ZM188 896H277L256 792H167Z" horiz-adv-x="239" unicode="İ"/>
			<glyph d="M95 517H180L72 0H-13Z" horiz-adv-x="203" unicode="ı"/>
			<glyph d="M147 714H242L92 0H-3ZM671 714H765L656 194Q637 115 623 85T582 31T518 -5T429 -17Q338 -17 284 23T231 136Q231 178 240 234H336Q326 187 326 159Q326 63 431 63Q484 63 516 98T567 223Z" horiz-adv-x="762" unicode="Ĳ"/>
			<glyph d="M136 714H222L200 610H114ZM95 517H180L72 0H-13ZM360 714H446L424 610H338ZM319 517H404L273 -104Q252 -198 151 -198Q118 -198 96 -192L111 -117Q129 -123 144 -123Q169 -123 182 -103T206 -26Z" horiz-adv-x="427" unicode="ĳ"/>
			<glyph d="M420 714H514L405 194Q386 115 372 85T331 31T267 -5T178 -17Q87 -17 33 23T-20 136Q-20 178 -11 234H85Q75 187 75 159Q75 63 180 63Q233 63 265 98T316 223ZM457 922H543L618 779H544L493 872L406 779H324Z" horiz-adv-x="509" unicode="Ĵ"/>
			<glyph d="M86 517H171L41 -98Q19 -198 -82 -198Q-115 -198 -137 -192L-122 -117Q-104 -123 -89 -123Q-62 -123 -50 -102T-27 -26ZM114 732H200L275 589H201L150 682L63 589H-19Z" horiz-adv-x="189" unicode="ĵ"/>
			<glyph d="M148 714H243L168 362L170 360L574 714H701L357 420L586 0H481L286 362L143 241L92 0H-3ZM205 -50H316L303 -122Q294 -170 267 -189T184 -210L192 -175Q215 -170 223 -163T238 -138H186Z" horiz-adv-x="643" unicode="Ķ"/>
			<glyph d="M138 714H222L133 294L135 292L395 517H506L281 326L409 0H314L213 275L111 184L72 0H-13ZM126 -50H237L224 -122Q215 -170 188 -189T105 -210L113 -175Q136 -170 144 -163T159 -138H107Z" horiz-adv-x="469" unicode="ķ"/>
			<glyph d="M147 714H242L110 80H487L470 0H-3ZM260 922H373L237 779H167Z" horiz-adv-x="553" unicode="Ĺ"/>
			<glyph d="M137 714H222L72 0H-13ZM237 922H350L214 779H144Z" horiz-adv-x="202" unicode="ĺ"/>
			<glyph d="M147 714H242L110 80H487L470 0H-3ZM167 -50H278L265 -122Q256 -170 229 -189T146 -210L154 -175Q177 -170 185 -163T200 -138H148Z" horiz-adv-x="553" unicode="Ļ"/>
			<glyph d="M137 714H222L72 0H-13ZM-38 -50H73L60 -122Q51 -170 24 -189T-59 -210L-51 -175Q-28 -170 -19 -163T-5 -138H-57Z" horiz-adv-x="202" unicode="ļ"/>
			<glyph d="M147 714H242L110 80H487L470 0H-3ZM350 714H463L363 571H297Z" horiz-adv-x="553" unicode="Ľ"/>
			<glyph d="M137 714H222L72 0H-13ZM299 714H412L312 571H246Z" horiz-adv-x="285" unicode="ľ"/>
			<glyph d="M147 714H242L110 80H487L470 0H-3ZM332 517H421L400 413H311Z" horiz-adv-x="553" unicode="Ŀ"/>
			<glyph d="M137 714H222L72 0H-13ZM241 517H330L309 413H220Z" horiz-adv-x="347" unicode="ŀ"/>
			<glyph d="M137 714H232L163 384L384 520L367 437L146 302L100 80H477L460 0H-13L37 234L-41 187L-24 269L54 317Z" horiz-adv-x="503" unicode="Ł"/>
			<glyph d="M134 714H219L165 477L234 532L224 454L150 397L69 0H-16L52 322L-18 268L-8 345L66 402Z" horiz-adv-x="187" unicode="ł"/>
			<glyph d="M148 714H250L505 123H507L626 714H718L567 0H465L212 587H210L89 0H-3ZM490 922H603L467 779H397Z" horiz-adv-x="708" unicode="Ń"/>
			<glyph d="M348 529Q422 529 457 497T492 396Q492 369 487 343T479 303L414 0H329L401 334Q407 362 407 382Q407 416 382 435T317 454Q258 454 203 408T133 288L72 0H-13L96 517H178L162 439H164Q231 527 348 529ZM344 732H457L321 589H251Z" horiz-adv-x="547" unicode="ń"/>
			<glyph d="M148 714H250L505 123H507L626 714H718L567 0H465L212 587H210L89 0H-3ZM225 -50H336L323 -122Q314 -170 287 -189T204 -210L212 -175Q235 -170 243 -163T258 -138H206Z" horiz-adv-x="708" unicode="Ņ"/>
			<glyph d="M348 529Q422 529 457 497T492 396Q492 369 487 343T479 303L414 0H329L401 334Q407 362 407 382Q407 416 382 435T317 454Q258 454 203 408T133 288L72 0H-13L96 517H178L162 439H164Q231 527 348 529ZM137 -50H248L235 -122Q226 -170 199 -189T116 -210L124 -175Q147 -170 155 -163T170 -138H118Z" horiz-adv-x="547" unicode="ņ"/>
			<glyph d="M148 714H250L505 123H507L626 714H718L567 0H465L212 587H210L89 0H-3ZM312 922H388L439 829L532 922H610L475 779H389Z" horiz-adv-x="708" unicode="Ň"/>
			<glyph d="M348 529Q422 529 457 497T492 396Q492 369 487 343T479 303L414 0H329L401 334Q407 362 407 382Q407 416 382 435T317 454Q258 454 203 408T133 288L72 0H-13L96 517H178L162 439H164Q231 527 348 529ZM186 732H262L313 639L406 732H484L349 589H263Z" horiz-adv-x="547" unicode="ň"/>
			<glyph d="M378 529Q452 529 487 497T522 396Q522 369 517 343T509 303L444 0H359L431 334Q437 362 437 382Q437 416 412 435T347 454Q288 454 233 408T163 288L102 0H17L126 517H208L192 439H194Q261 527 378 529ZM112 802H223L210 730Q201 682 174 662T91 642L99 677Q122 682 130 689T145 714H93Z" horiz-adv-x="577" unicode="ŉ"/>
			<glyph d="M419 731Q551 731 634 642T717 415Q717 299 668 199T531 41T333 -17Q188 -17 107 65T27 296Q27 483 137 607T419 731ZM418 651Q288 651 205 549T122 296Q122 187 175 125T333 63Q416 63 481 109T584 238T622 415Q622 521 566 586T418 651ZM327 872H596L585 817H315Z" horiz-adv-x="742" unicode="Ō"/>
			<glyph d="M303 529Q409 529 463 473T518 315Q518 177 438 82T232 -12Q133 -12 73 48T14 205Q14 292 51 367T153 486T303 529ZM296 454Q214 454 156 380T99 205Q99 136 137 99T241 63Q295 63 338 98T407 191T433 308Q433 373 397 413T296 454ZM210 682H479L468 627H198Z" horiz-adv-x="568" unicode="ō"/>
			<glyph d="M419 731Q551 731 634 642T717 415Q717 299 668 199T531 41T333 -17Q188 -17 107 65T27 296Q27 483 137 607T419 731ZM418 651Q288 651 205 549T122 296Q122 187 175 125T333 63Q416 63 481 109T584 238T622 415Q622 521 566 586T418 651ZM307 920H352Q351 836 445 836Q496 836 522 855T563 920H608Q600 856 555 819T442 781Q376 781 342 814T307 910Z" horiz-adv-x="742" unicode="Ŏ"/>
			<glyph d="M303 529Q409 529 463 473T518 315Q518 177 438 82T232 -12Q133 -12 73 48T14 205Q14 292 51 367T153 486T303 529ZM296 454Q214 454 156 380T99 205Q99 136 137 99T241 63Q295 63 338 98T407 191T433 308Q433 373 397 413T296 454ZM186 730H231Q230 646 324 646Q377 646 403 667T442 730H487Q478 665 434 628T321 591Q254 591 220 625T186 720Z" horiz-adv-x="568" unicode="ŏ"/>
			<glyph d="M419 731Q551 731 634 642T717 415Q717 299 668 199T531 41T333 -17Q188 -17 107 65T27 296Q27 483 137 607T419 731ZM418 651Q288 651 205 549T122 296Q122 187 175 125T333 63Q416 63 481 109T584 238T622 415Q622 521 566 586T418 651ZM417 922H530L394 779H324ZM583 922H696L560 779H490Z" horiz-adv-x="742" unicode="Ő"/>
			<glyph d="M303 529Q409 529 463 473T518 315Q518 177 438 82T232 -12Q133 -12 73 48T14 205Q14 292 51 367T153 486T303 529ZM296 454Q214 454 156 380T99 205Q99 136 137 99T241 63Q295 63 338 98T407 191T433 308Q433 373 397 413T296 454ZM302 732H415L279 589H209ZM468 732H581L445 589H375Z" horiz-adv-x="575" unicode="ő"/>
			<glyph d="M403 731Q468 731 524 706T609 634L625 714H1091L1075 634H696L648 407H995L980 330L979 327H632L580 80H964L948 0H473L486 57H484Q455 22 408 2T308 -17Q180 -17 103 69T27 300Q27 475 135 603T403 731ZM410 651Q281 651 201 544T122 292Q122 192 174 127T313 63Q378 63 424 92T490 156T522 252L579 534L580 542Q580 579 526 615T410 651Z" horiz-adv-x="1080" unicode="Œ"/>
			<glyph d="M302 529Q362 529 407 508T475 428Q504 480 555 504T665 529Q763 529 814 475T865 325Q865 281 854 233H475Q468 203 468 180Q468 119 504 91T599 63Q649 63 688 90T747 163H834Q776 -12 584 -12Q445 -12 405 90Q377 41 327 14T221 -12Q121 -12 67 38T13 191Q13 278 51 358T156 483T302 529ZM292 454Q238 454 193 416T123 317T98 195Q98 137 132 100T226 63Q284 63 325 100T389 204T413 344Q413 398 378 426T292 454ZM662 454Q595 454 549 413T488 308H778L780 337Q780 390 747 422T662 454Z" horiz-adv-x="913" unicode="œ"/>
			<glyph d="M148 714H428Q502 714 553 693T631 632T658 532Q657 456 612 403T497 340V338Q532 328 552 294T572 211Q572 190 564 133T557 62Q557 28 571 0H472Q464 29 464 63Q464 90 472 142T480 209Q480 304 401 305H156L92 0H-3ZM226 634L173 385H391Q471 385 517 423T563 526Q563 580 528 607T427 634ZM435 922H548L412 779H342Z" horiz-adv-x="657" unicode="Ŕ"/>
			<glyph d="M354 530L370 529L350 438L330 439Q279 439 249 426T181 371T121 229L72 0H-13L95 517H175L150 406H152Q194 474 239 502T354 530ZM212 732H325L189 589H119Z" horiz-adv-x="328" unicode="ŕ"/>
			<glyph d="M148 714H428Q502 714 553 693T631 632T658 532Q657 456 612 403T497 340V338Q532 328 552 294T572 211Q572 190 564 133T557 62Q557 28 571 0H472Q464 29 464 63Q464 90 472 142T480 209Q480 304 401 305H156L92 0H-3ZM226 634L173 385H391Q471 385 517 423T563 526Q563 580 528 607T427 634ZM214 -50H325L312 -122Q303 -170 276 -189T193 -210L201 -175Q224 -170 232 -163T247 -138H195Z" horiz-adv-x="657" unicode="Ŗ"/>
			<glyph d="M354 530L370 529L350 438L330 439Q279 439 249 426T181 371T121 229L72 0H-13L95 517H175L150 406H152Q194 474 239 502T354 530ZM-37 -50H74L61 -122Q52 -170 25 -189T-58 -210L-50 -175Q-27 -170 -18 -163T-4 -138H-56Z" horiz-adv-x="328" unicode="ŗ"/>
			<glyph d="M148 714H428Q502 714 553 693T631 632T658 532Q657 456 612 403T497 340V338Q532 328 552 294T572 211Q572 190 564 133T557 62Q557 28 571 0H472Q464 29 464 63Q464 90 472 142T480 209Q480 304 401 305H156L92 0H-3ZM226 634L173 385H391Q471 385 517 423T563 526Q563 580 528 607T427 634ZM281 922H357L408 829L501 922H579L444 779H358Z" horiz-adv-x="657" unicode="Ř"/>
			<glyph d="M354 530L370 529L350 438L330 439Q279 439 249 426T181 371T121 229L72 0H-13L95 517H175L150 406H152Q194 474 239 502T354 530ZM110 732H186L237 639L330 732H408L273 589H187Z" horiz-adv-x="328" unicode="ř"/>
			<glyph d="M339 731Q419 731 477 704T566 628T597 513V503H502V510Q502 584 461 617T339 651Q291 651 252 635T193 593T173 534Q173 487 204 460T294 418L385 394Q477 369 517 321T557 201Q557 135 520 86T418 10T279 -17Q192 -17 129 8T31 85T-3 208Q-3 229 -2 234H93V222Q93 142 140 102T283 63Q364 63 413 101T462 200Q462 243 433 271T333 318L254 339Q166 362 122 407T78 524Q78 588 114 635T212 707T339 731ZM408 922H521L385 779H315Z" horiz-adv-x="605" unicode="Ś"/>
			<glyph d="M222 529Q313 529 365 484T417 365H332V374Q332 408 302 431T224 454Q115 454 115 388Q115 364 136 346T217 306Q336 258 362 224T388 148Q388 76 330 32T176 -12Q-32 -12 -32 163H53V155Q53 63 185 63Q238 63 270 83T303 142Q303 178 249 204L201 225Q91 270 60 301T30 380Q30 444 84 486T222 529ZM296 732H409L273 589H203Z" horiz-adv-x="454" unicode="ś"/>
			<glyph d="M339 731Q419 731 477 704T566 628T597 513V503H502V510Q502 584 461 617T339 651Q291 651 252 635T193 593T173 534Q173 487 204 460T294 418L385 394Q477 369 517 321T557 201Q557 135 520 86T418 10T279 -17Q192 -17 129 8T31 85T-3 208Q-3 229 -2 234H93V222Q93 142 140 102T283 63Q364 63 413 101T462 200Q462 243 433 271T333 318L254 339Q166 362 122 407T78 524Q78 588 114 635T212 707T339 731ZM357 922H443L518 779H444L393 872L306 779H224Z" horiz-adv-x="605" unicode="Ŝ"/>
			<glyph d="M222 529Q313 529 365 484T417 365H332V374Q332 408 302 431T224 454Q115 454 115 388Q115 364 136 346T217 306Q336 258 362 224T388 148Q388 76 330 32T176 -12Q-32 -12 -32 163H53V155Q53 63 185 63Q238 63 270 83T303 142Q303 178 249 204L201 225Q91 270 60 301T30 380Q30 444 84 486T222 529ZM238 732H324L399 589H325L274 682L187 589H105Z" horiz-adv-x="454" unicode="ŝ"/>
			<glyph d="M338 731Q417 731 475 705T565 629T597 512V503H502V510Q502 560 483 591T428 636T338 651Q268 651 220 617T173 534Q173 490 202 462T289 419L385 393Q479 367 518 321T557 201Q557 103 476 43T269 -17H259L225 -54L226 -55Q237 -50 258 -50Q296 -50 319 -70T342 -123Q342 -163 309 -186T223 -210Q168 -210 125 -188L143 -145Q181 -160 213 -160Q267 -159 268 -129Q267 -100 222 -99Q198 -99 179 -107L160 -77L216 -13Q150 -6 99 22T22 99T-3 208Q-3 226 -2 234H93V222Q93 140 141 101T282 63Q364 63 413 101T462 200Q462 247 432 273T334 318L241 343Q79 387 78 524Q78 587 111 632T205 704T338 731Z" horiz-adv-x="605" unicode="Ş"/>
			<glyph d="M222 529Q312 529 364 484T417 365H332V371Q332 408 303 431T225 454Q174 454 144 437T115 388Q115 364 136 346T217 306Q324 263 356 231T388 148Q388 75 329 31T170 -12L131 -54L132 -55Q146 -50 165 -50Q203 -50 225 -69T248 -123Q248 -162 215 -186T129 -210Q75 -210 31 -188L49 -145Q85 -160 119 -160Q173 -160 173 -129Q173 -99 128 -99Q106 -99 85 -107L66 -77L126 -9Q50 0 9 43T-32 161V163H53V155Q53 110 87 86T185 63Q239 63 271 84T303 142Q303 179 250 204L201 225Q90 270 60 301T30 380Q30 445 85 487T222 529Z" horiz-adv-x="454" unicode="ş"/>
			<glyph d="M339 731Q419 731 477 704T566 628T597 513V503H502V510Q502 584 461 617T339 651Q291 651 252 635T193 593T173 534Q173 487 204 460T294 418L385 394Q477 369 517 321T557 201Q557 135 520 86T418 10T279 -17Q192 -17 129 8T31 85T-3 208Q-3 229 -2 234H93V222Q93 142 140 102T283 63Q364 63 413 101T462 200Q462 243 433 271T333 318L254 339Q166 362 122 407T78 524Q78 588 114 635T212 707T339 731ZM249 922H325L376 829L469 922H547L412 779H326Z" horiz-adv-x="605" unicode="Š"/>
			<glyph d="M222 529Q313 529 365 484T417 365H332V374Q332 408 302 431T224 454Q115 454 115 388Q115 364 136 346T217 306Q336 258 362 224T388 148Q388 76 330 32T176 -12Q-32 -12 -32 163H53V155Q53 63 185 63Q238 63 270 83T303 142Q303 178 249 204L201 225Q91 270 60 301T30 380Q30 444 84 486T222 529ZM125 732H201L252 639L345 732H423L288 589H202Z" horiz-adv-x="454" unicode="š"/>
			<glyph d="M93 714H669L651 634H411L277 0H182L316 634H76ZM166 -50H277L264 -122Q255 -170 228 -189T145 -210L153 -175Q176 -170 184 -163T199 -138H147Z" horiz-adv-x="609" unicode="Ţ"/>
			<glyph d="M153 670H238L206 517H309L293 442H190L127 140Q123 118 123 104Q123 69 174 69Q196 69 223 78L208 0Q174 -6 148 -6Q32 -6 32 78Q32 92 38 126L105 442H18L34 517H121ZM49 -50H160L147 -122Q138 -170 111 -189T28 -210L36 -175Q59 -170 67 -163T82 -138H30Z" horiz-adv-x="304" unicode="ţ"/>
			<glyph d="M93 714H669L651 634H411L277 0H182L316 634H76ZM268 922H344L395 829L488 922H566L431 779H345Z" horiz-adv-x="609" unicode="Ť"/>
			<glyph d="M153 670H238L206 517H309L293 442H190L127 140Q123 118 123 104Q123 69 174 69Q196 69 223 78L208 0Q174 -6 148 -6Q32 -6 32 78Q32 92 38 126L105 442H18L34 517H121ZM359 714H472L372 571H306Z" horiz-adv-x="347" unicode="ť"/>
			<glyph d="M93 714H669L651 634H411L380 487H550L539 432H368L277 0H182L273 432H106L118 487H285L316 634H76Z" horiz-adv-x="609" unicode="Ŧ"/>
			<glyph d="M160 670H245L213 517H316L300 442H197L176 346H291L280 291H165L136 153Q130 128 130 104Q130 69 181 69Q204 69 230 78L215 0Q181 -6 155 -6Q39 -6 39 78Q39 94 44 125L80 291H-15L-3 346H91L112 442H25L41 517H128Z" horiz-adv-x="311" unicode="ŧ"/>
			<glyph d="M129 714H224L130 270Q122 233 122 205Q122 135 166 99T299 63Q366 63 409 86T476 156Q498 199 527 334L607 714H702L613 285Q586 155 560 114T498 44T410 -1T298 -17Q165 -17 97 41T30 206Q30 207 30 226T38 285ZM553 907H605Q586 846 558 821T493 796Q470 796 451 803T407 822Q378 835 356 835Q321 835 303 793H251Q284 903 367 903Q397 903 439 883T503 863Q534 863 553 907Z" horiz-adv-x="677" unicode="Ũ"/>
			<glyph d="M88 517H173L104 199Q95 158 95 135Q95 101 119 82T185 63Q253 63 303 112T370 230L430 517H515L406 0H324L340 78H338Q270 -10 154 -12Q78 -12 44 21T10 121Q10 153 24 220ZM455 718H507Q477 607 395 607Q372 607 350 615T303 635T258 646Q223 646 205 604H153Q186 714 269 714Q297 714 341 694T405 674Q436 674 455 718Z" unicode="ũ"/>
			<glyph d="M129 714H224L130 270Q122 233 122 205Q122 135 166 99T299 63Q366 63 409 86T476 156Q498 199 527 334L607 714H702L613 285Q586 155 560 114T498 44T410 -1T298 -17Q165 -17 97 41T30 206Q30 207 30 226T38 285ZM298 872H567L556 817H286Z" horiz-adv-x="677" unicode="Ū"/>
			<glyph d="M88 517H173L104 199Q95 158 95 135Q95 101 119 82T185 63Q253 63 303 112T370 230L430 517H515L406 0H324L340 78H338Q270 -10 154 -12Q78 -12 44 21T10 121Q10 153 24 220ZM191 682H460L449 627H179Z" unicode="ū"/>
			<glyph d="M129 714H224L130 270Q122 233 122 205Q122 135 166 99T299 63Q366 63 409 86T476 156Q498 199 527 334L607 714H702L613 285Q586 155 560 114T498 44T410 -1T298 -17Q165 -17 97 41T30 206Q30 207 30 226T38 285ZM283 920H328Q327 836 421 836Q472 836 498 855T539 920H584Q576 856 531 819T418 781Q352 781 318 814T283 910Z" horiz-adv-x="677" unicode="Ŭ"/>
			<glyph d="M88 517H173L104 199Q95 158 95 135Q95 101 119 82T185 63Q253 63 303 112T370 230L430 517H515L406 0H324L340 78H338Q270 -10 154 -12Q78 -12 44 21T10 121Q10 153 24 220ZM175 730H220Q219 646 313 646Q366 646 392 667T431 730H476Q467 665 423 628T310 591Q243 591 209 625T175 720Z" unicode="ŭ"/>
			<glyph d="M129 714H224L130 270Q122 233 122 205Q122 135 166 99T299 63Q366 63 409 86T476 156Q498 199 527 334L607 714H702L613 285Q586 155 560 114T498 44T410 -1T298 -17Q165 -17 97 41T30 206Q30 207 30 226T38 285ZM421 973Q470 972 501 939T534 860Q534 813 500 780T421 747Q377 747 343 780T308 860Q309 907 342 939T421 973ZM420 928Q392 928 373 909T353 860Q353 831 373 811T421 792Q450 792 469 811T489 860Q489 889 470 908T420 928Z" horiz-adv-x="677" unicode="Ů"/>
			<glyph d="M88 517H173L104 199Q95 158 95 135Q95 101 119 82T185 63Q253 63 303 112T370 230L430 517H515L406 0H324L340 78H338Q270 -10 154 -12Q78 -12 44 21T10 121Q10 153 24 220ZM320 793Q364 793 398 759T433 680Q433 633 398 600T320 567Q273 567 240 601T207 680Q207 727 241 760T320 793ZM319 748Q291 748 271 728T252 680Q252 651 271 631T320 612Q349 612 368 631T388 680Q388 709 369 728T319 748Z" unicode="ů"/>
			<glyph d="M129 714H224L130 270Q122 233 122 205Q122 135 166 99T299 63Q366 63 409 86T476 156Q498 199 527 334L607 714H702L613 285Q586 155 560 114T498 44T410 -1T298 -17Q165 -17 97 41T30 206Q30 207 30 226T38 285ZM395 922H508L372 779H302ZM561 922H674L538 779H468Z" horiz-adv-x="677" unicode="Ű"/>
			<glyph d="M88 517H173L104 199Q95 158 95 135Q95 101 119 82T185 63Q253 63 303 112T370 230L430 517H515L406 0H324L340 78H338Q270 -10 154 -12Q78 -12 44 21T10 121Q10 153 24 220ZM283 732H396L260 589H190ZM449 732H562L426 589H356Z" unicode="ű"/>
			<glyph d="M130 714H225L131 271Q123 234 123 205Q123 63 300 63Q396 63 444 110T519 292L608 714H703L614 286Q590 172 569 129T509 51T414 0T297 -17Q247 -55 229 -78T211 -124Q211 -141 221 -150T248 -160Q283 -160 315 -130L343 -152Q296 -210 227 -210Q188 -210 164 -190T140 -135Q140 -78 239 -13Q31 13 31 204Q31 247 41 295Z" horiz-adv-x="678" unicode="Ų"/>
			<glyph d="M88 517H173Q134 339 114 248T95 135Q95 101 119 82T185 63Q249 63 302 111T370 229L430 517H515L406 0H384Q322 -46 298 -73T275 -124Q275 -141 286 -150T313 -160Q345 -160 379 -130L407 -152Q360 -210 292 -210Q252 -210 228 -190T204 -135Q204 -103 232 -72T324 0L340 78H338Q270 -12 154 -12Q81 -12 45 20T10 121Q10 137 13 159T88 517Z" unicode="ų"/>
			<glyph d="M68 714H162L187 113H189L463 714H571L611 111H613L873 714H971L643 0H544L499 616H497L215 0H113ZM513 922H599L674 779H600L549 872L462 779H380Z" horiz-adv-x="901" unicode="Ŵ"/>
			<glyph d="M31 517H121L153 106H155L341 517H437L462 106H464L660 517H752L485 0H395L369 402H367L182 0H92ZM389 732H475L550 589H476L425 682L338 589H256Z" horiz-adv-x="724" unicode="ŵ"/>
			<glyph d="M63 714H164L310 368L581 714H691L345 287L283 0H190L251 287ZM371 922H457L532 779H458L407 872L320 779H238Z" horiz-adv-x="607" unicode="Ŷ"/>
			<glyph d="M29 517H120L180 106H182L399 517H492L150 -88Q144 -99 117 -136T61 -190T-16 -210Q-34 -210 -52 -205T-76 -197L-61 -128Q-38 -142 -12 -142Q33 -142 61 -97L120 0ZM259 732H345L420 589H346L295 682L208 589H126Z" horiz-adv-x="457" unicode="ŷ"/>
			<glyph d="M63 714H164L310 368L581 714H691L345 287L283 0H190L251 287ZM280 896H369L348 792H259ZM443 896H532L511 792H422Z" horiz-adv-x="607" unicode="Ÿ"/>
			<glyph d="M106 714H627L610 633L70 80H526L509 0H-58L-41 79L495 634H86ZM410 922H523L387 779H317Z" horiz-adv-x="590" unicode="Ź"/>
			<glyph d="M56 517H449L436 456L73 75H382L368 0H-53L-41 64L319 442H41ZM307 732H420L284 589H214Z" horiz-adv-x="451" unicode="ź"/>
			<glyph d="M106 714H627L610 633L70 80H526L509 0H-58L-41 79L495 634H86ZM339 896H428L407 792H318Z" horiz-adv-x="590" unicode="Ż"/>
			<glyph d="M56 517H449L436 456L73 75H382L368 0H-53L-41 64L319 442H41ZM230 706H319L298 602H209Z" horiz-adv-x="451" unicode="ż"/>
			<glyph d="M106 714H627L610 633L70 80H526L509 0H-58L-41 79L495 634H86ZM246 922H322L373 829L466 922H544L409 779H323Z" horiz-adv-x="590" unicode="Ž"/>
			<glyph d="M56 517H449L436 456L73 75H382L368 0H-53L-41 64L319 442H41ZM132 732H208L259 639L352 732H430L295 589H209Z" horiz-adv-x="451" unicode="ž"/>
			<glyph d="M441 714Q470 714 507 706L487 633Q472 639 447 639Q407 639 389 622T361 571L327 449H438L420 381H309L193 -25Q180 -71 164 -99T116 -146T32 -165Q9 -165 -24 -160L-3 -86L27 -90Q88 -90 112 -7L222 381H127L145 449H240L285 609Q301 664 338 689T441 714Z" horiz-adv-x="536" unicode="ƒ"/>
			<glyph d="M339 731Q419 731 477 704T566 628T597 513V503H502V510Q502 584 461 617T339 651Q291 651 252 635T193 593T173 534Q173 487 204 460T294 418L385 394Q477 369 517 321T557 201Q557 135 520 86T418 10T279 -17Q192 -17 129 8T31 85T-3 208Q-3 229 -2 234H93V222Q93 142 140 102T283 63Q364 63 413 101T462 200Q462 243 433 271T333 318L254 339Q166 362 122 407T78 524Q78 588 114 635T212 707T339 731ZM197 -50H308L295 -122Q286 -170 259 -189T176 -210L184 -175Q207 -170 215 -163T230 -138H178Z" horiz-adv-x="605" unicode="Ș"/>
			<glyph d="M222 529Q313 529 365 484T417 365H332V374Q332 408 302 431T224 454Q115 454 115 388Q115 364 136 346T217 306Q336 258 362 224T388 148Q388 76 330 32T176 -12Q-32 -12 -32 163H53V155Q53 63 185 63Q238 63 270 83T303 142Q303 178 249 204L201 225Q91 270 60 301T30 380Q30 444 84 486T222 529ZM103 -50H214L201 -122Q192 -170 165 -189T82 -210L90 -175Q113 -170 121 -163T136 -138H84Z" horiz-adv-x="454" unicode="ș"/>
			<glyph d="M81 714H657L639 634H399L265 0H170L304 634H64ZM153 -50H264L251 -122Q242 -170 215 -189T132 -210L140 -175Q163 -170 171 -163T186 -138H134Z" horiz-adv-x="577" unicode="Ț"/>
			<glyph d="M161 670H246L214 517H317L301 442H198L135 140Q131 118 131 104Q131 69 182 69Q204 69 231 78L216 0Q182 -6 156 -6Q40 -6 40 78Q40 92 46 126L113 442H26L42 517H129ZM57 -50H168L155 -122Q146 -170 119 -189T36 -210L44 -175Q67 -170 75 -163T90 -138H38Z" horiz-adv-x="309" unicode="ț"/>
			<glyph d="M132 732H218L293 589H219L168 682L81 589H-1Z" horiz-adv-x="195" unicode="ˆ"/>
			<glyph d="M29 732H105L156 639L249 732H327L192 589H106Z" horiz-adv-x="199" unicode="ˇ"/>
			<glyph d="M40 682H309L298 627H28Z" horiz-adv-x="205" unicode="ˉ"/>
			<glyph d="M26 730H71Q70 646 164 646Q217 646 243 667T282 730H327Q318 665 274 628T161 591Q94 591 60 625T26 720Z" horiz-adv-x="205" unicode="˘"/>
			<glyph d="M136 706H225L204 602H115Z" horiz-adv-x="210" unicode="˙"/>
			<glyph d="M175 793Q219 793 253 759T288 680Q288 633 253 600T175 567Q128 567 95 601T62 680Q62 727 96 760T175 793ZM174 748Q146 748 126 728T107 680Q107 651 126 631T175 612Q204 612 223 631T243 680Q243 709 224 728T174 748Z" horiz-adv-x="217" unicode="˚"/>
			<glyph d="M117 0H177Q122 -40 95 -69T68 -124Q68 -140 78 -150T106 -160Q138 -160 172 -130L200 -152Q155 -210 85 -210Q45 -210 21 -190T-3 -135Q-3 -102 24 -72T117 0Z" horiz-adv-x="212" unicode="˛"/>
			<glyph d="M296 718H348Q318 607 236 607Q213 607 191 615T144 635T99 646Q64 646 46 604H-6Q27 714 110 714Q138 714 182 694T246 674Q277 674 296 718Z" horiz-adv-x="214" unicode="˜"/>
			<glyph d="M98 732H211L75 589H5ZM264 732H377L241 589H171Z" horiz-adv-x="203" unicode="˝"/>
			<glyph d="M368 712H451L586 0H-62ZM395 625L64 72H494Z" horiz-adv-x="672" unicode="Δ"/>
			<glyph d="M414 721Q537 721 617 646T697 452Q697 333 628 246T443 139L427 64L621 63L607 0H351L391 185Q498 201 557 273T617 449Q617 542 560 596T412 650Q335 650 268 608T164 496T127 351Q127 282 163 236T263 185L224 0H-25L-11 63H173L190 143Q122 164 84 220T47 353Q47 449 97 534T233 670T414 721Z" horiz-adv-x="740" unicode="Ω"/>
			<glyph d="M97 517H182L119 226Q104 158 104 135Q104 101 128 82T193 63Q237 63 275 86T340 147T376 230L437 517H522L413 0H331L347 78H345Q272 -12 174 -12Q117 -12 82 23H80L33 -198H-52Z" horiz-adv-x="547" unicode="μ"/>
			<glyph d="M26 479H567L553 410H475L415 127Q413 116 410 103T408 81Q408 67 417 62T438 58Q449 58 460 61T483 68L471 11Q454 3 437 -1T401 -6Q374 -6 351 6T328 51Q328 67 331 86T337 115L400 410H159L72 0H-3L84 410H11Z" horiz-adv-x="568" unicode="π"/>
			<glyph d="M-11 318H489L473 238H-27Z" horiz-adv-x="497" unicode="–"/>
			<glyph d="M118 318H858L843 240L842 238H102Z" horiz-adv-x="996" unicode="—"/>
			<glyph d="M281 714L271 666Q241 662 222 639T194 567H250L226 456H115L134 548Q150 628 181 666T281 714Z" horiz-adv-x="305" unicode="‘"/>
			<glyph d="M171 714H282L267 638Q250 548 217 505T116 456L126 504Q155 511 166 522T186 553T203 603H147Z" horiz-adv-x="305" unicode="’"/>
			<glyph d="M50 111H161L144 25Q127 -63 92 -103T-5 -147L5 -99Q36 -95 52 -73T82 0H26Z" horiz-adv-x="306" unicode="‚"/>
			<glyph d="M281 714L271 666Q241 662 223 639T194 567H250L226 456H115L134 550Q149 627 181 666T281 714ZM463 714L453 666Q424 663 405 639T376 567H432L408 456H297L315 543Q332 628 364 667T463 714Z" horiz-adv-x="487" unicode="“"/>
			<glyph d="M171 714H282L264 622Q248 543 215 502T116 456L126 504Q154 508 171 527T203 603H147ZM353 714H464L447 631Q428 530 389 494T298 456L308 504Q327 506 347 521T385 603H329Z" horiz-adv-x="487" unicode="”"/>
			<glyph d="M50 111H161L145 29Q126 -71 88 -107T-5 -147L5 -99Q37 -95 53 -72T82 0H26ZM232 111H343L328 33Q309 -68 272 -105T177 -147L187 -99Q220 -95 236 -70T264 0H208Z" horiz-adv-x="488" unicode="„"/>
			<glyph d="M310 714H395L353 517H544L528 442H337L211 -155H126L252 442H61L77 517H268Z" horiz-adv-x="557" unicode="†"/>
			<glyph d="M316 714H401L359 517H550L534 442H343L275 117H466L450 42H259L217 -155H132L174 42H-17L-1 117H190L258 442H67L83 517H274Z" horiz-adv-x="558" unicode="‡"/>
			<glyph d="M248 535Q321 535 374 484T427 357Q427 283 374 230T248 178Q173 178 121 230T70 357Q70 433 122 484T248 535Z" horiz-adv-x="497" unicode="•"/>
			<glyph d="M63 111H174L150 0H39ZM396 111H507L483 0H372ZM729 111H840L816 0H705Z" horiz-adv-x="998" unicode="…"/>
			<glyph d="M546 725H610L175 -28H111ZM229 709Q288 709 318 674T349 575Q349 483 301 422T177 362Q55 362 55 501Q55 593 104 651T229 709ZM222 654Q180 654 151 608T123 510Q123 465 139 441T181 417Q220 417 250 462T281 562Q281 607 264 630T222 654ZM554 335Q613 335 643 299T674 201Q674 106 625 47T502 -12Q380 -12 380 127Q380 221 429 278T554 335ZM904 335Q964 335 994 299T1024 201Q1024 109 976 48T852 -12Q730 -12 730 127Q730 219 779 277T904 335ZM547 280Q507 280 477 234T448 134Q448 90 464 66T506 43Q546 43 576 88T606 188Q606 280 547 280ZM897 280Q856 280 827 235T798 134Q798 89 814 66T856 43Q896 43 926 88T956 188Q956 280 897 280Z" horiz-adv-x="1078" unicode="‰"/>
			<glyph d="M235 442L214 357L94 289L181 199L162 114L39 250L61 342Z" horiz-adv-x="267" unicode="‹"/>
			<glyph d="M77 442L200 306L178 214L4 114L25 199L145 267L58 357Z" horiz-adv-x="268" unicode="›"/>
			<glyph d="M268 725H332L-103 -28H-167Z" horiz-adv-x="165" unicode="⁄"/>
			<glyph d="M414 720Q507 720 591 660L549 585Q485 641 410 641Q258 641 187 450H512L478 391H170L161 334H460L426 275H159Q169 60 345 60Q395 60 437 78T530 133L509 32Q425 -17 334 -17Q216 -17 149 59T77 275H-1L32 334H79L87 391H20L53 450H101Q138 576 222 648T414 720Z" horiz-adv-x="574" unicode="€"/>
			<glyph d="M364 721Q406 721 435 692T464 617Q464 539 400 450T219 273Q185 123 185 100Q185 74 199 59T237 45Q278 45 337 86H339L359 40Q288 -14 216 -14Q164 -14 135 13T106 85Q106 108 113 137L130 220L62 162H60L37 208L145 291L198 542Q215 627 257 674T364 721ZM355 667Q331 667 312 645T280 560L234 346Q308 413 352 486T397 612Q397 638 385 652T355 667Z" horiz-adv-x="496" unicode="ℓ"/>
			<glyph d="M74 714H400V659H271V302H203V659H74ZM483 714H588L711 401L832 714H936V302H868V646H866L731 302H688L553 646H551V302H483Z" horiz-adv-x="1011" unicode="™"/>
			<glyph d="M414 721Q537 721 617 646T697 452Q697 333 628 246T443 139L427 64L621 63L607 0H351L391 185Q498 201 557 273T617 449Q617 542 560 596T412 650Q335 650 268 608T164 496T127 351Q127 282 163 236T263 185L224 0H-25L-11 63H173L190 143Q122 164 84 220T47 353Q47 449 97 534T233 670T414 721Z" horiz-adv-x="740" unicode="Ω"/>
			<glyph d="M300 535Q412 535 485 459T559 259H155V78Q184 49 220 34T300 19Q363 19 409 47T493 139L528 118Q482 46 430 14T300 -17Q188 -17 115 61T42 259Q42 381 115 458T300 535ZM298 500Q258 500 222 485T155 440V295H446V440Q415 469 378 484T298 500Z" horiz-adv-x="597" unicode="℮"/>
			<glyph d="M200 721Q317 721 384 624T451 361Q451 183 391 85T218 -12Q129 -12 71 52T14 213Q14 307 70 367T213 427Q309 427 374 352L375 398Q375 504 330 581T202 658Q146 658 88 611L47 661Q113 721 200 721ZM222 365Q163 365 126 320T89 210Q89 140 127 94T220 48Q288 48 329 117T370 280Q307 365 222 365Z" horiz-adv-x="509" unicode="∂"/>
			<glyph d="M368 712H451L586 0H-62ZM395 625L64 72H494Z" horiz-adv-x="672" unicode="∆"/>
			<glyph d="M65 786H647V-214H569V714H143V-214H65Z" horiz-adv-x="713" unicode="∏"/>
			<glyph d="M39 786H577V714H140L441 290L122 -142H589V-214H25V-150L347 290L39 722Z" horiz-adv-x="613" unicode="∑"/>
			<glyph d="M47 287H551V219H47Z" horiz-adv-x="598" unicode="−"/>
			<glyph d="M268 725H332L-103 -28H-167Z" horiz-adv-x="165" unicode="∕"/>
			<glyph d="M125 317Q152 317 170 298T189 253Q189 226 171 207T125 189Q99 189 80 208T61 253Q61 279 80 298T125 317Z" horiz-adv-x="274" unicode="∙"/>
			<glyph d="M408 786H484L273 -214H198L36 120L-11 98L-39 158L73 210L224 -107Z" horiz-adv-x="501" unicode="√"/>
			<glyph d="M539 410Q603 410 645 366T687 255Q687 186 646 142T540 98Q497 98 452 121T350 207Q278 140 240 119T159 99Q95 99 53 141T11 252Q11 318 51 363T156 408Q205 408 249 381T350 294Q420 367 460 388T539 410ZM538 342Q506 342 473 320T392 251Q447 198 478 182T542 166Q580 166 601 189T622 252Q622 290 601 316T538 342ZM156 341Q120 341 98 315T76 252Q76 214 98 190T159 166Q219 166 306 251Q212 341 156 341Z" horiz-adv-x="756" unicode="∞"/>
			<glyph d="M333 786Q365 786 389 771T414 730Q414 713 401 702T372 692Q351 692 334 720Q323 735 317 735Q285 735 285 632L287 555V6Q287 -111 255 -162T161 -213Q133 -213 112 -199T92 -161Q92 -145 104 -135T129 -125Q149 -125 161 -146Q174 -167 181 -167Q206 -167 209 -65V507L207 579Q207 691 238 738T333 786Z" horiz-adv-x="543" unicode="∫"/>
			<glyph d="M482 415H532Q524 345 489 307T402 269Q349 269 259 304T131 340Q99 340 80 316T56 263H4Q13 334 46 372T133 411Q183 411 272 375T407 340Q441 340 458 362T482 415ZM481 234H531Q523 164 490 126T402 89Q363 89 307 107T205 143T130 161Q98 161 78 136T55 83H3Q14 154 46 192T132 231Q183 231 272 195T406 160Q440 160 457 182T481 234Z" horiz-adv-x="589" unicode="≈"/>
			<glyph d="M373 532L436 500L374 384H520V313H337L270 186H520V114H233L157 -32L95 0L154 114H13V186H191L258 313H13V384H296Z" horiz-adv-x="587" unicode="≠"/>
			<glyph d="M520 528V450L112 304L520 159V82L13 266V341ZM13 42H520V-30H13Z" horiz-adv-x="587" unicode="≤"/>
			<glyph d="M13 528L520 341V266L13 82V159L421 304L13 450ZM13 42H520V-30H13Z" horiz-adv-x="587" unicode="≥"/>
			<glyph d="M254 747H326L498 356L326 -35H254L83 356ZM290 671L159 356L290 41L422 356Z" horiz-adv-x="582" unicode="◊"/>
			<glyph d="M86 517H171L41 -98Q19 -198 -82 -198Q-115 -198 -137 -192L-122 -117Q-104 -123 -89 -123Q-62 -123 -50 -102T-27 -26Z" horiz-adv-x="190" unicode=""/>
			<glyph d="M52 922H153L220 779H153Z" horiz-adv-x="191" unicode=""/>
			<glyph d="M190 922H303L167 779H97Z" horiz-adv-x="200" unicode=""/>
			<glyph d="M132 922H218L293 779H219L168 872L81 779H-1Z" horiz-adv-x="195" unicode=""/>
			<glyph d="M29 922H105L156 829L249 922H327L192 779H106Z" horiz-adv-x="199" unicode=""/>
			<glyph d="M296 907H348Q329 846 301 821T236 796Q213 796 194 803T150 822Q121 835 99 835Q64 835 46 793H-6Q27 903 110 903Q140 903 182 883T246 863Q277 863 296 907Z" horiz-adv-x="214" unicode=""/>
			<glyph d="M50 896H139L118 792H29ZM213 896H302L281 792H192Z" horiz-adv-x="202" unicode=""/>
			<glyph d="M40 872H309L298 817H28Z" horiz-adv-x="205" unicode=""/>
			<glyph d="M26 920H71Q70 836 164 836Q215 836 241 855T282 920H327Q319 856 274 819T161 781Q95 781 61 814T26 910Z" horiz-adv-x="205" unicode=""/>
			<glyph d="M175 973Q224 972 255 939T288 860Q288 813 254 780T175 747Q131 747 97 780T62 860Q63 907 96 939T175 973ZM174 928Q146 928 127 909T107 860Q107 831 127 811T175 792Q204 792 223 811T243 860Q243 889 224 908T174 928Z" horiz-adv-x="217" unicode=""/>
			<glyph d="M98 922H211L75 779H5ZM264 922H377L241 779H171Z" horiz-adv-x="203" unicode=""/>
			<glyph d="M136 896H225L204 792H115Z" horiz-adv-x="210" unicode=""/>
			<glyph d="M184 714H297L197 571H131Z" horiz-adv-x="193" unicode=""/>
			<glyph d="M29 -50H140L127 -122Q118 -170 91 -189T8 -210L16 -175Q39 -170 47 -163T62 -138H10Z" horiz-adv-x="274" unicode=""/>
			<glyph d="M219 786L211 751Q189 746 179 738T165 714H217L198 626H87L102 707Q110 746 136 765T219 786Z" horiz-adv-x="273" unicode=""/>
			<glyph d="M-2 718H510V0H-2ZM48 667V50H460V667ZM257 609Q311 609 346 573T381 478Q381 446 369 421T317 357Q283 326 276 311Q269 294 269 234H223L221 253Q221 300 232 328T284 395Q330 436 330 474Q330 508 306 533T254 559Q184 559 172 464L122 472Q136 609 257 609ZM220 184H276V117H220Z" horiz-adv-x="509" unicode=""/>
			<glyph d="M286 722Q332 722 356 714L342 642Q316 647 302 647Q236 647 219 584L202 517H301L287 442H187L92 0H7L103 442H15L30 517H118L137 598Q153 663 188 692T286 722ZM433 714H519L497 610H411ZM392 517H477L369 0H284Z" horiz-adv-x="497" unicode="ﬁ"/>
			<glyph d="M286 722Q332 722 356 714L342 642Q316 647 302 647Q236 647 219 584L202 517H301L287 442H187L92 0H7L103 442H15L30 517H118L137 598Q153 663 188 692T286 722ZM434 714H519L369 0H284Z" horiz-adv-x="497" unicode="ﬂ"/>
		</font>
</defs>
</svg>
