<?xml version="1.0" encoding="UTF-8"?>
<svg height="100%" width="100%" xmlns="http://www.w3.org/2000/svg">
	<defs>
		<font horiz-adv-x="197" id="web">
			<font-face alphabetic="0" ascent="987" descent="-223" font-family="" panose-1="2 11 4 3 2 2 2 2 2 4"/>
			<missing-glyph d="M6 718H518V0H6ZM56 667V50H468V667ZM265 609Q318 609 353 573T389 478Q389 443 375 416T325 357Q289 324 283 306T277 234H231L229 253Q229 306 242 332T296 398Q322 424 330 439T338 474Q338 508 315 533T262 559Q191 559 180 464L130 472Q137 543 174 576T265 609ZM228 184H284V117H228Z" horiz-adv-x="524"/>
			<glyph d="" horiz-adv-x="238" unicode=" "/>
			<glyph d="M93 714H161V501L146 178H108L93 501ZM85 106H169V0H85Z" horiz-adv-x="253" unicode="!"/>
			<glyph d="M93 714H156V471H93ZM226 714H289V471H226Z" horiz-adv-x="382" unicode="&quot;"/>
			<glyph d="M216 691H266L235 469H376L407 691H457L426 469H531V424H420L398 268H503V223H392L361 0H311L342 223H201L170 0H120L151 223H41V268H157L179 424H69V469H185ZM229 424L207 268H348L370 424Z" horiz-adv-x="568" unicode="#"/>
			<glyph d="M263 807H302V729Q394 727 453 669T514 521V512H451Q450 583 411 629T302 676V388Q440 359 486 309T533 185Q533 99 470 43T302 -15V-100H263V-14Q148 -3 93 53T35 228H98Q100 56 263 38V334Q151 356 102 401T53 534Q53 617 110 672T263 729ZM263 676Q194 676 155 636T116 527Q116 471 151 442T263 397ZM302 326V38Q380 39 425 78T470 184Q470 236 432 270T302 326Z" horiz-adv-x="568" unicode="$"/>
			<glyph d="M649 725H696L244 -34H196ZM234 706Q312 706 352 656T393 517Q393 432 354 380T234 328Q157 328 116 377T75 517Q75 608 116 657T234 706ZM233 661Q184 661 156 623T128 516Q128 447 156 410T234 373Q283 373 311 410T340 516Q340 584 312 622T233 661ZM673 363Q751 363 791 313T832 174Q832 89 793 37T673 -15Q591 -15 552 37T514 174Q514 264 554 313T673 363ZM672 318Q622 318 594 280T567 173Q567 106 594 68T673 30Q723 30 751 68T779 173Q779 240 750 279T672 318Z" horiz-adv-x="901" unicode="%"/>
			<glyph d="M290 714Q359 714 403 672T448 569Q448 519 416 475T308 384L464 196Q476 220 480 244T485 316H548Q548 219 506 145L626 0H547L471 93Q385 -15 260 -15Q163 -15 104 39T45 185Q45 304 220 397L191 434Q132 506 132 569Q132 634 178 674T290 714ZM289 661Q252 661 223 638T195 569Q195 518 275 425Q385 492 385 569Q385 612 358 636T289 661ZM254 356Q108 279 108 179Q108 121 152 79T263 38Q359 38 432 140Z" horiz-adv-x="623" unicode="&amp;"/>
			<glyph d="M114 714H177V471H114Z" horiz-adv-x="290" unicode="'"/>
			<glyph d="M198 729H248Q120 526 120 244Q120 133 156 15T248 -191H198Q123 -67 90 39T57 266Q57 510 198 729Z" horiz-adv-x="253" unicode="("/>
			<glyph d="M5 729H55Q134 597 165 491T196 272Q196 26 55 -191H5Q133 14 133 294Q133 396 99 512T5 729Z" horiz-adv-x="253" unicode=")"/>
			<glyph d="M162 714H201V591L316 632L331 595L213 556L285 458L253 435L180 535L107 435L75 458L148 556L33 595L47 632L162 591Z" horiz-adv-x="364" unicode="*"/>
			<glyph d="M280 503H333V278H558V225H333V0H280V225H55V278H280Z" horiz-adv-x="612" unicode="+"/>
			<glyph d="M60 106H144V-1Q144 -51 120 -88T56 -137V-94Q76 -87 89 -61T102 -9V0H60Z" horiz-adv-x="204" unicode=","/>
			<glyph d="M66 304H316V246H66Z" horiz-adv-x="382" unicode="-"/>
			<glyph d="M60 106H144V0H60Z" horiz-adv-x="204" unicode="."/>
			<glyph d="M301 729H352L47 -15H-7Z" horiz-adv-x="345" unicode="/"/>
			<glyph d="M297 706Q541 706 541 346Q541 -15 297 -15Q53 -15 53 345Q53 706 297 706ZM296 653Q116 653 116 346Q116 38 297 38Q478 38 478 346Q478 653 296 653Z" horiz-adv-x="594" unicode="0"/>
			<glyph d="M253 700H304V0H241V520H56V565Q147 567 179 581T229 624T253 700Z" horiz-adv-x="400" unicode="1"/>
			<glyph d="M282 706Q382 706 440 652T499 509Q499 435 454 374Q412 314 279 232Q196 181 158 140T113 58H502V0H41Q43 79 86 141T244 277Q349 344 392 393T436 510Q436 575 391 614T279 653Q204 653 162 603T121 468V458H58V468Q58 579 117 642T282 706Z" horiz-adv-x="543" unicode="2"/>
			<glyph d="M290 706Q350 706 400 685T478 623T506 528Q506 469 475 428T388 373V371Q458 359 494 314T532 198Q532 135 501 86T414 11T292 -15Q184 -15 118 44T51 204Q51 212 52 223H115V210Q116 130 163 84T291 38Q341 38 382 58T446 113T469 193Q469 262 424 301T300 341H248V394H299Q362 394 402 429T443 521Q443 585 401 619T291 653Q217 653 174 608T131 480V476H68Q69 581 130 643T290 706Z" horiz-adv-x="578" unicode="3"/>
			<glyph d="M360 700H417V227H522V174H417V0H359V174H36V235ZM357 608L93 227H359V608Z" horiz-adv-x="558" unicode="4"/>
			<glyph d="M130 691H480V633H174L129 401L131 399Q158 430 197 447T279 464Q386 464 450 396T514 222Q514 122 444 53T271 -15Q169 -15 105 45T41 200H104Q106 129 154 83T276 38Q351 38 401 92T451 229Q451 309 399 360T272 411Q227 411 185 390T116 328H62Z" horiz-adv-x="560" unicode="5"/>
			<glyph d="M309 706Q502 706 524 523H461Q453 582 414 617T315 653Q220 653 171 572T122 340H124Q150 394 201 425T311 456Q412 456 476 392T541 222Q541 120 474 52T304 -15Q172 -15 115 72T59 355Q59 520 126 613T309 706ZM308 403Q232 403 183 352T135 218Q135 133 180 85T310 38Q382 38 430 89T478 218Q478 300 431 351T308 403Z" horiz-adv-x="587" unicode="6"/>
			<glyph d="M11 691H461V633Q196 355 178 0H110Q122 177 188 323T398 633H11Z" horiz-adv-x="472" unicode="7"/>
			<glyph d="M291 706Q383 706 443 658T504 531Q504 474 474 433T390 377V375Q459 361 496 314T533 196Q533 100 467 42T292 -15Q184 -15 117 41T51 194Q51 261 89 311T193 375V377Q79 413 79 531Q79 609 138 657T291 706ZM291 653Q225 653 183 618T142 531Q142 471 182 436T289 401Q359 401 400 435T441 531Q441 588 400 620T291 653ZM291 348Q207 348 160 306T114 196Q114 123 161 80T292 38Q374 38 422 79T470 196Q470 264 421 306T291 348Z" horiz-adv-x="584" unicode="8"/>
			<glyph d="M283 706Q414 706 471 619T528 336Q528 176 462 80T278 -15Q85 -15 63 168H126Q135 106 175 72T272 38Q368 38 416 120T465 351H463Q439 300 388 267T277 235Q176 235 111 299T46 469Q46 571 112 638T283 706ZM277 653Q205 653 157 601T109 473Q109 391 156 339T278 288Q358 288 405 340T452 473Q452 556 407 604T277 653Z" horiz-adv-x="587" unicode="9"/>
			<glyph d="M103 500H187V394H103ZM103 106H187V0H103Z" horiz-adv-x="290" unicode=":"/>
			<glyph d="M103 500H187V394H103ZM103 106H187V-3Q187 -51 162 -88T99 -137V-94Q121 -86 133 -60T145 -7V0H103Z" horiz-adv-x="290" unicode=";"/>
			<glyph d="M560 514V459L114 253L560 47V-8L52 226V280Z" horiz-adv-x="612" unicode="&lt;"/>
			<glyph d="M55 378H558V325H55ZM55 181H558V128H55Z" horiz-adv-x="612" unicode="="/>
			<glyph d="M52 514L560 280V226L52 -8V47L498 253L52 459Z" horiz-adv-x="612" unicode="&gt;"/>
			<glyph d="M287 729Q375 729 432 678T490 544Q490 487 466 450T408 379L354 326Q329 301 321 278T310 179H247V199Q247 261 266 302T354 405Q427 469 427 541Q427 598 385 637T283 676Q211 676 167 629T123 503V494H60Q60 602 121 665T287 729ZM237 106H321V0H237Z" horiz-adv-x="549" unicode="?"/>
			<glyph d="M420 729Q566 729 662 642T759 418Q759 343 725 275T638 167T527 128Q501 128 482 145T460 195H458Q393 129 331 129Q271 129 235 170T199 274Q199 346 230 414T317 522T436 563Q510 563 542 479L567 544H620L528 268Q513 224 513 201Q513 173 537 173Q600 173 653 252T706 421Q706 539 625 611T422 684Q285 684 195 589T106 353Q106 214 198 122T424 30Q496 30 567 65T682 163H733Q689 84 605 34T424 -15Q267 -15 160 91T53 360Q53 459 101 545T235 680T420 729ZM432 510Q387 510 348 475T285 385T262 279Q262 236 284 209T345 182Q386 182 424 219T487 312T511 417Q511 454 485 482T432 510Z" horiz-adv-x="812" unicode="@"/>
			<glyph d="M280 714H356L636 0H563L476 222H151L65 0H-8ZM315 646L172 280H453Z" horiz-adv-x="628" unicode="A"/>
			<glyph d="M71 714H373Q484 714 543 669T602 540Q602 484 569 438T478 379V377Q547 368 588 320T629 203Q629 103 564 51T374 0H71ZM139 656V401H374Q449 401 491 434T534 522Q534 656 372 656ZM139 343V58H374Q561 58 561 205Q561 343 373 343Z" horiz-adv-x="665" unicode="B"/>
			<glyph d="M374 729Q487 729 567 664T661 498H593Q576 576 517 623T374 671Q250 671 177 584T105 357Q105 216 177 129T374 43Q468 43 530 106T603 272H671Q657 140 577 62T374 -15Q221 -15 129 88T37 357Q37 524 129 626T374 729Z" horiz-adv-x="702" unicode="C"/>
			<glyph d="M71 714H306Q646 714 646 357Q646 0 305 0H71ZM139 656V58H283Q441 58 509 129T578 357Q578 517 508 586T281 656Z" horiz-adv-x="683" unicode="D"/>
			<glyph d="M71 714H564V656H139V398H537V340H139V58H569V0H71Z" horiz-adv-x="610" unicode="E"/>
			<glyph d="M71 714H524V656H139V398H481V340H139V0H71Z" horiz-adv-x="545" unicode="F"/>
			<glyph d="M374 729Q493 729 572 666T672 492H604Q598 562 532 616T374 671Q291 671 230 631T137 519T105 357Q105 216 178 129T374 43Q487 43 554 112T621 299V305H378V363H681V0H632L623 130H621Q588 59 523 22T374 -15Q221 -15 129 88T37 357Q37 464 78 549T196 682T374 729Z" horiz-adv-x="739" unicode="G"/>
			<glyph d="M71 714H139V404H563V714H631V0H563V346H139V0H71Z" horiz-adv-x="702" unicode="H"/>
			<glyph d="M76 714H144V0H76Z" horiz-adv-x="220" unicode="I"/>
			<glyph d="M359 714H427V197Q427 88 379 36T220 -15Q20 -15 20 227V229H88Q88 124 122 83T226 43Q300 43 329 82T359 223Z" horiz-adv-x="498" unicode="J"/>
			<glyph d="M71 714H139V330L554 714H646L327 419L661 0H573L276 372L139 245V0H71Z" horiz-adv-x="657" unicode="K"/>
			<glyph d="M71 714H139V58H539V0H71Z" horiz-adv-x="565" unicode="L"/>
			<glyph d="M69 714H169L416 88L662 714H762V0H694V617H692L448 0H384L139 617H137V0H69Z" horiz-adv-x="831" unicode="M"/>
			<glyph d="M70 714H146L562 110H564V714H632V0H556L140 604H138V0H70Z" horiz-adv-x="702" unicode="N"/>
			<glyph d="M370 729Q470 729 546 681T664 548T706 357Q706 191 614 88T370 -15Q215 -15 124 89T33 357Q33 524 125 626T370 729ZM369 671Q246 671 173 584T101 357Q101 216 174 129T370 43Q491 43 564 129T638 357Q638 498 564 584T369 671Z" horiz-adv-x="739" unicode="O"/>
			<glyph d="M71 714H389Q488 714 544 659T600 510Q600 414 543 360T389 306H139V0H71ZM139 656V364H374Q444 364 488 399T532 510Q532 577 492 616T372 656Z" horiz-adv-x="628" unicode="P"/>
			<glyph d="M370 729Q524 729 615 625T706 357Q706 178 598 74L700 -4L666 -46L555 38Q481 -15 370 -15Q215 -15 124 89T33 357Q33 520 124 624T370 729ZM369 671Q246 671 173 584T101 357Q101 216 174 129T370 43Q446 43 502 78L408 149L443 192L547 113Q638 200 638 357Q638 499 565 585T369 671Z" horiz-adv-x="739" unicode="Q"/>
			<glyph d="M71 714H396Q494 714 554 666T615 528Q615 456 578 408T476 346V344Q536 335 567 296T602 165L604 123Q608 31 634 0H559Q545 21 539 131Q533 236 500 276T407 317H139V0H71ZM139 656V375H394Q457 375 502 413T547 514Q547 583 507 619T394 656Z" horiz-adv-x="665" unicode="R"/>
			<glyph d="M303 729Q422 729 495 668T568 507H500Q496 581 443 626T304 671Q221 671 173 634T126 529Q126 490 149 463T226 422L400 379Q504 353 548 307T593 189Q593 93 520 39T320 -15Q183 -15 109 46T35 217V235H103V229Q103 43 334 43Q413 43 469 83T525 188Q525 281 382 316L219 356Q139 376 98 416T58 528Q58 585 86 630T170 702T303 729Z" horiz-adv-x="628" unicode="S"/>
			<glyph d="M26 714H592V656H343V0H275V656H26Z" horiz-adv-x="618" unicode="T"/>
			<glyph d="M64 714H132V271Q132 154 184 98T341 43Q450 43 500 99T551 272V714H619V259Q619 127 545 56T341 -15Q209 -15 136 57T64 259Z" horiz-adv-x="683" unicode="U"/>
			<glyph d="M-8 714H65L297 75H299L529 714H601L336 1L335 0H257Z" horiz-adv-x="591" unicode="V"/>
			<glyph d="M-1 714H72L234 89H236L410 714H495L670 89H672L835 714H903L706 0H634L453 639H451L271 0H197Z" horiz-adv-x="905" unicode="W"/>
			<glyph d="M2 714H82L284 415L493 714H569L325 366L583 0H501L284 315L64 0H-13L244 368Z" horiz-adv-x="572" unicode="X"/>
			<glyph d="M-11 714H70L305 352L539 714H620L338 294V0H270V294Z" horiz-adv-x="609" unicode="Y"/>
			<glyph d="M53 714H567V654L97 58H577V0H21V60L491 656H53Z" horiz-adv-x="598" unicode="Z"/>
			<glyph d="M82 729H243V676H145V-138H243V-191H82Z" horiz-adv-x="253" unicode="["/>
			<glyph d="M-7 729H44L352 -15H298Z" horiz-adv-x="345" unicode="\"/>
			<glyph d="M10 729H171V-191H10V-138H108V676H10Z" horiz-adv-x="253" unicode="]"/>
			<glyph d="M280 691H332L562 238H505L305 628L108 238H50Z" horiz-adv-x="612" unicode="^"/>
			<glyph d="M6 -75H506V-125H6Z" horiz-adv-x="512" unicode="_"/>
			<glyph d="M-25 729H53L158 588H107Z" unicode="`"/>
			<glyph d="M267 531Q456 531 456 365V91Q456 53 493 53Q505 53 513 57V4Q495 0 473 0Q429 0 413 22T398 87V90H396Q360 33 317 9T208 -15Q127 -15 81 25T35 136Q35 187 58 219T128 269T286 299Q345 305 361 312T385 333T393 372Q393 428 359 453T258 478Q127 477 120 358H57Q62 444 116 487T267 531ZM391 282Q381 264 326 257L263 248Q170 235 134 209T98 140Q98 98 130 68T213 38Q290 38 341 83T393 199V282Z" horiz-adv-x="525" unicode="a"/>
			<glyph d="M63 714H126V418H128Q146 471 197 501T308 531Q414 531 476 456T539 258Q539 135 476 60T307 -15Q247 -15 196 13T123 98H121V0H63ZM306 478Q222 478 174 418T126 259Q126 155 175 96T307 38Q386 38 431 99T476 258Q476 357 430 417T306 478Z" horiz-adv-x="580" unicode="b"/>
			<glyph d="M281 531Q373 531 426 483T490 354H427Q400 478 281 478Q200 478 150 414T100 258Q100 162 151 100T281 38Q339 38 382 79T431 185H494Q481 90 424 37T281 -15Q170 -15 103 62T37 258Q37 377 103 454T281 531Z" horiz-adv-x="532" unicode="c"/>
			<glyph d="M454 714H517V0H459V98H457Q437 49 386 17T273 -15Q167 -15 104 58T41 258Q41 381 103 456T273 531Q336 531 386 499T452 418H454ZM273 478Q195 478 149 417T104 258Q104 161 149 99T273 38Q355 38 404 96T454 258Q454 360 405 419T273 478Z" horiz-adv-x="580" unicode="d"/>
			<glyph d="M270 531Q374 531 435 457T497 256V241H100Q100 153 146 95T270 38Q398 38 432 170H495Q473 75 417 30T270 -15Q162 -15 99 58T37 258Q37 380 100 455T270 531ZM269 478Q201 478 156 428T100 294H434Q432 371 386 424T269 478Z" horiz-adv-x="535" unicode="e"/>
			<glyph d="M223 714Q253 714 275 710V656Q248 661 229 661Q189 661 174 641T160 575V516H262V463H160V0H97V463H9V516H97V566Q97 644 126 678T223 714Z" horiz-adv-x="265" unicode="f"/>
			<glyph d="M270 531Q325 531 369 501T434 427H436V516H499V40Q499 -83 444 -144T271 -206Q178 -206 119 -164T56 -50H119Q127 -99 167 -126T270 -153Q359 -153 397 -103T436 40V112H434Q411 61 367 33T270 6Q161 6 99 74T37 271Q37 384 100 457T270 531ZM269 478Q191 478 145 419T100 264Q100 172 146 115T270 59Q342 59 389 116T436 264Q436 358 391 418T269 478Z" horiz-adv-x="562" unicode="g"/>
			<glyph d="M62 714H125V427H127Q145 474 190 502T293 531Q393 531 437 482T481 334V0H418V324Q418 478 287 478Q212 478 168 427T125 296V0H62Z" horiz-adv-x="543" unicode="h"/>
			<glyph d="M64 714H127V613H64ZM64 516H127V0H64Z" horiz-adv-x="191" unicode="i"/>
			<glyph d="M64 714H127V613H64ZM64 516H127V-50Q127 -125 99 -158T17 -191Q9 -191 -27 -189V-137Q-20 -138 3 -138Q39 -138 51 -121T64 -64Z" horiz-adv-x="191" unicode="j"/>
			<glyph d="M63 714H126V266L412 516H496L276 325L511 0H432L228 281L126 196V0H63Z" horiz-adv-x="506" unicode="k"/>
			<glyph d="M64 714H127V0H64Z" horiz-adv-x="191" unicode="l"/>
			<glyph d="M293 531Q346 531 386 505T441 430Q464 480 508 505T606 531Q776 531 776 352V0H713V348Q713 417 683 447T591 478Q451 478 451 291V0H388V349Q388 478 280 478Q205 478 165 428T126 288V0H63V516H121V429H124Q177 531 293 531Z" horiz-adv-x="839" unicode="m"/>
			<glyph d="M293 531Q393 531 437 483T481 335V0H418V323Q418 478 287 478Q214 478 169 428T125 296V0H62V516H125V427H127Q145 474 190 502T293 531Z" horiz-adv-x="543" unicode="n"/>
			<glyph d="M281 531Q390 531 457 455T525 258Q525 139 458 62T281 -15Q170 -15 103 62T37 258Q37 377 103 454T281 531ZM280 478Q199 478 149 414T100 258Q100 163 151 100T281 38Q360 38 411 100T462 258Q462 350 412 414T280 478Z" horiz-adv-x="562" unicode="o"/>
			<glyph d="M307 531Q414 531 476 456T539 258Q539 133 476 59T308 -15Q246 -15 196 14T128 98H126V-191H63V516H121V418H123Q146 473 195 502T307 531ZM306 478Q126 478 126 258Q126 158 174 98T307 38Q386 38 431 99T476 258Q476 355 430 416T306 478Z" horiz-adv-x="580" unicode="p"/>
			<glyph d="M273 531Q335 531 386 498T457 418H459V516H517V-191H454V98H452Q433 44 383 14T273 -15Q167 -15 104 59T41 258Q41 382 103 456T273 531ZM273 478Q194 478 149 416T104 258Q104 159 150 98T273 38Q357 38 405 98T454 258Q454 359 405 418T273 478Z" horiz-adv-x="580" unicode="q"/>
			<glyph d="M305 523H318V460H308Q229 460 177 407T126 274V0H63V516H121V395H123Q146 457 194 490T305 523Z" horiz-adv-x="321" unicode="r"/>
			<glyph d="M246 531Q330 531 381 487T435 365H372Q370 419 333 448T237 478Q181 478 148 454T115 389Q115 326 231 300Q351 273 378 259T422 225T446 185T453 140Q453 70 395 27T246 -15Q50 -15 34 167H97Q101 105 142 71T249 38Q312 38 351 65T390 135Q390 175 360 196T268 232L201 247Q125 264 88 296T52 386Q52 454 107 492T246 531Z" horiz-adv-x="487" unicode="s"/>
			<glyph d="M100 671H163V516H268V463H163V111Q163 75 176 61T221 47Q240 47 268 50V-4Q228 -6 212 -6Q145 -6 122 21T100 106V463H10V516H100Z" horiz-adv-x="302" unicode="t"/>
			<glyph d="M62 516H125V193Q125 108 158 73T262 38Q331 38 374 93T418 246V516H481V0H423V93H421Q396 42 349 13T243 -15Q62 -15 62 181Z" horiz-adv-x="543" unicode="u"/>
			<glyph d="M5 516H75L237 63H239L399 516H464L271 0H204Z" horiz-adv-x="469" unicode="v"/>
			<glyph d="M11 516H78L210 74H212L338 516H409L535 74H537L669 516H736L570 0H501L374 434H372L246 0H177Z" horiz-adv-x="747" unicode="w"/>
			<glyph d="M19 516H98L245 320L389 516H468L282 269L483 0H403L241 217L82 0H4L204 268Z" horiz-adv-x="487" unicode="x"/>
			<glyph d="M5 516H72L242 76L401 516H464L240 -79Q214 -147 186 -169T107 -191Q71 -191 56 -186V-133Q76 -138 99 -138Q125 -138 141 -128T169 -98T211 2Z" horiz-adv-x="469" unicode="y"/>
			<glyph d="M41 516H435V471L94 53H449V0H18V51L355 463H41Z" horiz-adv-x="469" unicode="z"/>
			<glyph d="M250 729H299V676H281Q253 676 238 649T224 573V431Q224 377 205 334T154 270V268Q185 248 204 206T224 107V-33Q224 -138 280 -138H299V-191H249Q207 -191 184 -157T161 -66V84Q161 242 89 242V295Q161 295 161 452V607Q161 664 185 696T250 729Z" horiz-adv-x="345" unicode="{"/>
			<glyph d="M91 786H144V-214H91Z" horiz-adv-x="234" unicode="|"/>
			<glyph d="M46 729H96Q137 729 160 695T184 607V454Q184 296 256 296V243Q184 243 184 86V-67Q184 -121 162 -156T96 -191H46V-138H65Q121 -138 121 -33V110Q121 157 138 201T191 268V270Q159 292 140 334T121 430V574Q121 623 106 649T65 676H46Z" horiz-adv-x="345" unicode="}"/>
			<glyph d="M501 315L537 279Q507 233 478 213T412 193Q384 193 355 203T279 236T195 258Q142 258 111 189L75 225Q117 310 200 311Q235 311 278 294T357 261T413 246Q440 246 462 266T501 315Z" horiz-adv-x="612" unicode="~"/>
			<glyph d="" horiz-adv-x="278" unicode=" "/>
			<glyph d="M85 516H169V410H85ZM108 338H146L161 15V-191H93V15Z" horiz-adv-x="253" unicode="¡"/>
			<glyph d="M276 618H315V531Q398 529 451 482T513 354H450Q424 474 315 478V38Q367 40 407 81T454 185H517Q505 93 450 40T315 -15V-116H276V-14Q179 -4 119 70T60 258Q60 368 118 443T276 529ZM276 476Q205 464 164 404T123 258Q123 171 166 109T276 39Z" horiz-adv-x="568" unicode="¢"/>
			<glyph d="M288 729Q395 729 457 669T520 498V492H457Q457 580 411 628T288 676Q213 676 168 632T123 519Q123 473 148 428Q175 382 182 362H342V330H200Q209 316 216 287T224 233Q224 137 114 51L116 49Q172 79 214 79Q266 79 315 59Q365 38 401 38Q431 38 462 53T516 94L548 46Q481 -15 402 -15Q354 -15 298 5Q239 26 198 26Q164 26 142 17T85 -15L49 39Q108 87 134 131T161 225Q161 282 133 330H52V362H115Q60 447 60 523Q60 618 123 673T288 729Z" horiz-adv-x="568" unicode="£"/>
			<glyph d="M73 594L129 538Q191 594 284 594Q371 594 438 539L493 594L531 556L477 502Q533 432 533 346Q533 258 477 190L531 136L493 98L438 153Q374 98 284 98Q199 98 129 154L73 98L35 136L92 193Q37 260 37 346Q37 434 91 500L35 556ZM284 536Q209 536 154 482T100 346Q100 266 153 211T284 156Q362 156 416 210T470 346Q470 425 416 480T284 536Z" horiz-adv-x="568" unicode="¤"/>
			<glyph d="M12 714H84L283 349L484 714H553L342 349H451V304H320L314 294V221H451V176H314V0H251V176H116V221H251V294L245 304H116V349H222Z" horiz-adv-x="568" unicode="¥"/>
			<glyph d="M91 661H144V411H91ZM91 161H144V-89H91Z" horiz-adv-x="234" unicode="¦"/>
			<glyph d="M279 729Q367 729 415 683T464 552H401V559Q401 607 368 641T285 676Q237 676 205 653T173 587Q173 549 203 516T336 431Q445 374 481 329T517 230Q517 188 489 150T408 91Q458 47 458 -18Q458 -82 408 -121T289 -161Q205 -161 154 -116T104 16H167V9Q167 -42 201 -75T283 -108Q334 -108 364 -84T395 -19Q395 22 361 55T221 143Q137 186 94 230T51 337Q51 385 81 421T160 477Q110 521 110 586Q110 647 158 688T279 729ZM196 447Q114 413 114 340Q114 301 146 266T255 188Q328 149 370 122Q454 157 454 230Q454 269 420 306T303 387Q226 427 196 447Z" horiz-adv-x="568" unicode="§"/>
			<glyph d="M-24 711H44V610H-24ZM153 711H221V610H153Z" unicode="¨"/>
			<glyph d="M406 729Q507 729 592 680T728 546T778 357Q778 255 729 168T594 33T406 -15Q304 -15 217 34T82 169T34 357Q34 459 82 545T217 680T406 729ZM405 676Q273 676 182 584T92 357Q92 222 181 130T406 38Q538 38 629 130T720 357Q720 491 629 583T405 676ZM415 586Q489 586 540 545T600 435H549Q538 486 502 513T415 541Q340 541 295 490T251 357Q251 274 294 223T416 173Q467 173 502 201T549 279H600Q590 207 539 167T415 128Q318 128 258 190T198 357Q198 463 259 524T415 586Z" horiz-adv-x="812" unicode="©"/>
			<glyph d="M153 706Q223 706 252 680T281 606V437Q281 411 306 411Q314 411 319 414V380Q302 377 292 377Q277 377 266 381T249 398T244 430V433H242Q201 368 119 368Q62 368 31 393T1 464Q1 510 31 534T148 566Q203 570 218 576T234 600Q234 667 147 667Q108 667 84 649T60 597H13Q19 705 153 706ZM232 549Q228 537 150 528Q94 520 71 507T48 466Q48 442 70 424T117 407Q168 407 201 434T234 502V549Z" horiz-adv-x="323" unicode="ª"/>
			<glyph d="M199 431V364L105 275L199 186V119L66 244V306ZM360 431V364L266 275L360 186V119L227 244V306Z" horiz-adv-x="438" unicode="«"/>
			<glyph d="M55 378H558V111H505V325H55Z" horiz-adv-x="612" unicode="¬"/>
			<glyph d="M66 304H316V246H66Z" horiz-adv-x="382" unicode="­"/>
			<glyph d="M406 729Q508 729 594 679T729 543T778 357Q778 199 670 92T406 -15Q304 -15 218 33T83 168T34 357Q34 459 82 545T217 680T406 729ZM405 676Q273 676 182 584T92 357Q92 224 181 131T406 38Q540 38 630 130T720 357Q720 493 629 584T405 676ZM271 572H436Q576 572 576 453Q576 354 468 333L596 142H534L413 333H324V142H271ZM324 527V378H399Q472 378 497 396T523 453Q523 527 424 527Z" horiz-adv-x="812" unicode="®"/>
			<glyph d="M-66 683H263V638H-66Z" unicode="¯"/>
			<glyph d="M206 706Q265 706 307 663T350 562Q350 501 307 459T206 418Q144 418 103 460T62 562Q62 622 104 664T206 706ZM205 667Q162 667 131 636T101 562Q101 517 131 487T206 457Q249 457 280 487T311 562Q311 607 280 637T205 667Z" horiz-adv-x="412" unicode="°"/>
			<glyph d="M280 503H333V323H558V270H333V90H280V270H56V323H280ZM55 53H558V0H55Z" horiz-adv-x="612" unicode="±"/>
			<glyph d="M180 706Q243 706 284 675T326 581Q326 545 308 515T254 460T175 411T107 363T75 313H323V274H21V275Q22 332 60 373T155 446T246 511T279 585Q279 620 250 643T176 667Q130 667 104 638T77 553H30V560Q30 626 67 666T180 706Z" horiz-adv-x="345" unicode="²"/>
			<glyph d="M166 706Q229 706 270 677T311 595Q311 560 291 535T234 502V500Q279 494 303 466T328 397Q328 338 284 301T167 265Q96 265 52 299T9 398V412H56V407Q56 360 85 332T166 304Q214 304 247 329T281 394Q281 436 246 458T136 478V517Q204 514 234 535T264 591Q264 630 234 648T166 667Q117 667 91 638T66 564H19Q20 627 58 666T166 706Z" horiz-adv-x="345" unicode="³"/>
			<glyph d="M144 731H222L90 590H39Z" unicode="´"/>
			<glyph d="M65 516H128V190Q128 116 158 77T265 38Q336 38 378 94T421 249V516H484V0H426V93H424Q400 42 352 13T246 -15Q175 -15 128 20V-191H65Z" horiz-adv-x="549" unicode="µ"/>
			<glyph d="M293 714H525V-177H462V661H342V-177H279V328Q192 328 132 384T72 519Q72 613 129 663T293 714Z" horiz-adv-x="612" unicode="¶"/>
			<glyph d="M145 375Q168 375 186 357T204 315Q204 292 186 274T145 257Q119 257 102 275T86 317Q86 340 104 357T145 375Z" horiz-adv-x="290" unicode="·"/>
			<glyph d="M97 0H132L88 -54Q100 -50 122 -50Q155 -50 179 -67T204 -117Q204 -156 172 -179T94 -203Q42 -203 0 -182L14 -150Q45 -164 92 -164Q146 -164 146 -121Q146 -104 133 -93T103 -83Q68 -83 52 -91L36 -76Z" unicode="¸"/>
			<glyph d="M169 697H209V274H162V584H41V623Q115 624 138 641T169 697Z" horiz-adv-x="345" unicode="¹"/>
			<glyph d="M168 706Q246 706 291 660T337 537Q337 460 292 414T168 368Q94 368 51 415T9 537Q9 612 51 659T168 706ZM172 667Q121 667 88 629T56 537Q56 483 88 445T173 407Q224 407 257 444T290 537Q290 592 258 629T172 667Z" horiz-adv-x="346" unicode="º"/>
			<glyph d="M78 431L211 306V244L78 119V186L172 275L78 364ZM239 431L372 306V244L239 119V186L333 275L239 364Z" horiz-adv-x="438" unicode="»"/>
			<glyph d="M593 725H639L187 -34H139ZM182 697H222V274H175V584H54V623Q128 624 151 641T182 697ZM651 423H695V139H763V100H695V0H648V100H438V139ZM646 355L484 139H648V355Z" horiz-adv-x="846" unicode="¼"/>
			<glyph d="M593 725H639L187 -34H139ZM182 697H222V274H175V584H54V623Q128 624 151 641T182 697ZM645 432Q708 432 749 401T791 307Q791 271 773 241T719 186T640 137T572 89T540 39H788V0H486V1Q487 58 525 99T620 172T711 237T744 311Q744 346 715 369T641 393Q595 393 569 364T542 279H495V286Q495 352 532 392T645 432Z" horiz-adv-x="846" unicode="½"/>
			<glyph d="M628 725H674L222 -34H174ZM166 706Q229 706 270 677T311 595Q311 560 291 535T234 502V500Q279 494 303 466T328 397Q328 338 284 301T167 265Q96 265 52 299T9 398V412H56V407Q56 360 85 332T166 304Q214 304 247 329T281 394Q281 436 246 458T136 478V517Q204 514 234 535T264 591Q264 630 234 648T166 667Q117 667 91 638T66 564H19Q20 627 58 666T166 706ZM646 423H690V139H758V100H690V0H643V100H433V139ZM641 355L479 139H643V355Z" horiz-adv-x="846" unicode="¾"/>
			<glyph d="M229 516H313V410H229ZM240 344H303V327Q303 256 282 218Q263 179 199 121Q123 55 123 -18Q123 -75 164 -114T266 -153Q343 -153 385 -105T427 20V29H490Q490 -83 428 -144T263 -206Q175 -206 117 -154T60 -21Q60 24 79 64T158 160Q205 204 218 223T236 272T240 344Z" horiz-adv-x="549" unicode="¿"/>
			<glyph d="M280 714H356L636 0H563L476 222H151L65 0H-8ZM315 646L172 280H453ZM181 919H259L364 778H313Z" horiz-adv-x="628" unicode="À"/>
			<glyph d="M280 714H356L636 0H563L476 222H151L65 0H-8ZM315 646L172 280H453ZM391 919H469L337 778H286Z" horiz-adv-x="628" unicode="Á"/>
			<glyph d="M280 714H356L636 0H563L476 222H151L65 0H-8ZM315 646L172 280H453ZM289 919H358L472 778H407L321 880L233 778H175Z" horiz-adv-x="628" unicode="Â"/>
			<glyph d="M280 714H356L636 0H563L476 222H151L65 0H-8ZM315 646L172 280H453ZM442 900H480Q471 852 447 828T393 805Q361 805 318 828Q276 851 255 851Q217 851 205 800H166Q171 843 195 869T255 896Q288 896 330 874Q371 852 390 852Q410 852 422 863T442 900Z" horiz-adv-x="628" unicode="Ã"/>
			<glyph d="M280 714H356L636 0H563L476 222H151L65 0H-8ZM315 646L172 280H453ZM199 901H267V800H199ZM376 901H444V800H376Z" horiz-adv-x="628" unicode="Ä"/>
			<glyph d="M280 714H356L636 0H563L476 222H151L65 0H-8ZM315 646L172 280H453ZM324 967Q369 967 400 935T431 860Q431 817 400 785T324 753Q280 753 248 785T217 860Q217 903 247 935T324 967ZM323 928Q296 928 276 909T256 860Q256 831 275 811T324 792Q354 792 373 811T392 860Q392 888 373 908T323 928Z" horiz-adv-x="628" unicode="Å"/>
			<glyph d="M366 714H879V656H512V398H856V340H512V58H883V0H444V226H185L69 0H-8ZM404 656L215 284H444V656Z" horiz-adv-x="905" unicode="Æ"/>
			<glyph d="M374 729Q484 729 566 666T661 498H593Q576 576 517 623T374 671Q250 671 177 584T105 357Q105 216 178 129T374 43Q465 43 527 104T603 272H671Q655 135 575 60T373 -15L341 -54Q353 -50 376 -50Q411 -50 434 -69T457 -117Q457 -156 425 -179T347 -203Q293 -203 253 -182L267 -150Q298 -164 346 -164Q371 -164 385 -152T399 -121Q399 -104 387 -93T355 -83Q323 -83 305 -91L289 -76L339 -13Q202 -3 119 99T37 357Q37 464 78 549T196 682T374 729Z" horiz-adv-x="702" unicode="Ç"/>
			<glyph d="M71 714H564V656H139V398H537V340H139V58H569V0H71ZM180 919H258L363 778H312Z" horiz-adv-x="610" unicode="È"/>
			<glyph d="M71 714H564V656H139V398H537V340H139V58H569V0H71ZM390 919H468L336 778H285Z" horiz-adv-x="610" unicode="É"/>
			<glyph d="M71 714H564V656H139V398H537V340H139V58H569V0H71ZM288 919H357L471 778H406L320 880L232 778H174Z" horiz-adv-x="610" unicode="Ê"/>
			<glyph d="M71 714H564V656H139V398H537V340H139V58H569V0H71ZM198 901H266V800H198ZM375 901H443V800H375Z" horiz-adv-x="610" unicode="Ë"/>
			<glyph d="M76 714H144V0H76ZM-24 919H54L159 778H108Z" horiz-adv-x="220" unicode="Ì"/>
			<glyph d="M76 714H144V0H76ZM186 919H264L132 778H81Z" horiz-adv-x="220" unicode="Í"/>
			<glyph d="M76 714H144V0H76ZM84 919H153L267 778H202L116 880L28 778H-30Z" horiz-adv-x="220" unicode="Î"/>
			<glyph d="M76 714H144V0H76ZM-6 901H62V800H-6ZM171 901H239V800H171Z" horiz-adv-x="220" unicode="Ï"/>
			<glyph d="M71 714H303Q646 714 646 357Q646 0 305 0H71V348H-1V393H71ZM139 656V393H375V348H139V58H283Q440 58 509 129T578 357Q578 517 508 586T284 656Z" horiz-adv-x="683" unicode="Ð"/>
			<glyph d="M70 714H146L562 110H564V714H632V0H556L140 604H138V0H70ZM487 900H525Q516 852 492 828T438 805Q406 805 363 828Q321 851 300 851Q262 851 250 800H211Q216 843 240 869T300 896Q333 896 375 874Q416 852 435 852Q455 852 467 863T487 900Z" horiz-adv-x="702" unicode="Ñ"/>
			<glyph d="M370 729Q470 729 546 681T664 548T706 357Q706 191 614 88T370 -15Q215 -15 124 89T33 357Q33 524 125 626T370 729ZM369 671Q246 671 173 584T101 357Q101 216 174 129T370 43Q491 43 564 129T638 357Q638 498 564 584T369 671ZM236 919H314L419 778H368Z" horiz-adv-x="739" unicode="Ò"/>
			<glyph d="M370 729Q470 729 546 681T664 548T706 357Q706 191 614 88T370 -15Q215 -15 124 89T33 357Q33 524 125 626T370 729ZM369 671Q246 671 173 584T101 357Q101 216 174 129T370 43Q491 43 564 129T638 357Q638 498 564 584T369 671ZM446 919H524L392 778H341Z" horiz-adv-x="739" unicode="Ó"/>
			<glyph d="M370 729Q470 729 546 681T664 548T706 357Q706 191 614 88T370 -15Q215 -15 124 89T33 357Q33 524 125 626T370 729ZM369 671Q246 671 173 584T101 357Q101 216 174 129T370 43Q491 43 564 129T638 357Q638 498 564 584T369 671ZM344 919H413L527 778H462L376 880L288 778H230Z" horiz-adv-x="739" unicode="Ô"/>
			<glyph d="M370 729Q470 729 546 681T664 548T706 357Q706 191 614 88T370 -15Q215 -15 124 89T33 357Q33 524 125 626T370 729ZM369 671Q246 671 173 584T101 357Q101 216 174 129T370 43Q491 43 564 129T638 357Q638 498 564 584T369 671ZM497 900H535Q526 852 502 828T448 805Q416 805 373 828Q331 851 310 851Q272 851 260 800H221Q226 843 250 869T310 896Q343 896 385 874Q426 852 445 852Q465 852 477 863T497 900Z" horiz-adv-x="739" unicode="Õ"/>
			<glyph d="M370 729Q470 729 546 681T664 548T706 357Q706 191 614 88T370 -15Q215 -15 124 89T33 357Q33 524 125 626T370 729ZM369 671Q246 671 173 584T101 357Q101 216 174 129T370 43Q491 43 564 129T638 357Q638 498 564 584T369 671ZM254 901H322V800H254ZM431 901H499V800H431Z" horiz-adv-x="739" unicode="Ö"/>
			<glyph d="M117 477L306 288L495 477L532 440L343 251L532 62L495 25L306 213L117 25L80 62L268 251L80 440Z" horiz-adv-x="612" unicode="×"/>
			<glyph d="M370 729Q510 729 600 641L671 719L697 696L624 615Q706 517 706 357Q706 191 614 88T370 -15Q228 -15 139 74L63 -12L36 13L115 101Q33 203 33 357Q33 524 125 626T370 729ZM369 671Q245 671 173 583T101 357Q101 232 159 150L557 593Q485 671 369 671ZM579 565L182 122Q251 43 370 43Q494 43 566 129T638 357Q638 482 579 565Z" horiz-adv-x="739" unicode="Ø"/>
			<glyph d="M64 714H132V271Q132 154 184 98T341 43Q450 43 500 99T551 272V714H619V259Q619 127 545 56T341 -15Q209 -15 136 57T64 259ZM206 919H284L389 778H338Z" horiz-adv-x="683" unicode="Ù"/>
			<glyph d="M64 714H132V271Q132 154 184 98T341 43Q450 43 500 99T551 272V714H619V259Q619 127 545 56T341 -15Q209 -15 136 57T64 259ZM416 919H494L362 778H311Z" horiz-adv-x="683" unicode="Ú"/>
			<glyph d="M64 714H132V271Q132 154 184 98T341 43Q450 43 500 99T551 272V714H619V259Q619 127 545 56T341 -15Q209 -15 136 57T64 259ZM314 919H383L497 778H432L346 880L258 778H200Z" horiz-adv-x="683" unicode="Û"/>
			<glyph d="M64 714H132V271Q132 154 184 98T341 43Q450 43 500 99T551 272V714H619V259Q619 127 545 56T341 -15Q209 -15 136 57T64 259ZM224 901H292V800H224ZM401 901H469V800H401Z" horiz-adv-x="683" unicode="Ü"/>
			<glyph d="M-11 714H70L305 352L539 714H620L338 294V0H270V294ZM382 919H460L328 778H277Z" horiz-adv-x="609" unicode="Ý"/>
			<glyph d="M71 714H139V597H386Q486 597 543 543T600 393Q600 297 542 243T388 189H139V0H71ZM139 539V247H374Q443 247 487 282T532 393Q532 462 492 500T371 539Z" horiz-adv-x="628" unicode="Þ"/>
			<glyph d="M266 729Q353 729 407 681T462 553Q462 496 431 455T349 403V401Q417 395 457 343T498 215Q498 147 471 97T390 19T267 -8Q236 -8 226 -6V49Q247 45 273 45Q347 45 390 86T435 203Q435 266 414 301T348 352T232 368H226V421Q397 421 399 551Q399 605 362 639T267 676Q196 676 163 640T130 531V0H67V536Q67 628 119 678T266 729Z" horiz-adv-x="549" unicode="ß"/>
			<glyph d="M267 531Q456 531 456 365V91Q456 53 493 53Q505 53 513 57V4Q495 0 473 0Q429 0 413 22T398 87V90H396Q360 33 317 9T208 -15Q127 -15 81 25T35 136Q35 187 58 219T128 269T286 299Q345 305 361 312T385 333T393 372Q393 428 359 453T258 478Q127 477 120 358H57Q62 444 116 487T267 531ZM391 282Q381 264 326 257L263 248Q170 235 134 209T98 140Q98 98 130 68T213 38Q290 38 341 83T393 199V282ZM123 729H201L306 588H255Z" horiz-adv-x="525" unicode="à"/>
			<glyph d="M267 531Q456 531 456 365V91Q456 53 493 53Q505 53 513 57V4Q495 0 473 0Q429 0 413 22T398 87V90H396Q360 33 317 9T208 -15Q127 -15 81 25T35 136Q35 187 58 219T128 269T286 299Q345 305 361 312T385 333T393 372Q393 428 359 453T258 478Q127 477 120 358H57Q62 444 116 487T267 531ZM391 282Q381 264 326 257L263 248Q170 235 134 209T98 140Q98 98 130 68T213 38Q290 38 341 83T393 199V282ZM333 731H411L279 590H228Z" horiz-adv-x="525" unicode="á"/>
			<glyph d="M267 531Q456 531 456 365V91Q456 53 493 53Q505 53 513 57V4Q495 0 473 0Q429 0 413 22T398 87V90H396Q360 33 317 9T208 -15Q127 -15 81 25T35 136Q35 187 58 219T128 269T286 299Q345 305 361 312T385 333T393 372Q393 428 359 453T258 478Q127 477 120 358H57Q62 444 116 487T267 531ZM391 282Q381 264 326 257L263 248Q170 235 134 209T98 140Q98 98 130 68T213 38Q290 38 341 83T393 199V282ZM231 730H300L414 589H349L263 691L175 589H117Z" horiz-adv-x="525" unicode="â"/>
			<glyph d="M267 531Q456 531 456 365V91Q456 53 493 53Q505 53 513 57V4Q495 0 473 0Q429 0 413 22T398 87V90H396Q360 33 317 9T208 -15Q127 -15 81 25T35 136Q35 187 58 219T128 269T286 299Q345 305 361 312T385 333T393 372Q393 428 359 453T258 478Q127 477 120 358H57Q62 444 116 487T267 531ZM391 282Q381 264 326 257L263 248Q170 235 134 209T98 140Q98 98 130 68T213 38Q290 38 341 83T393 199V282ZM384 710H422Q414 665 391 640T335 615Q307 615 276 630T229 653T197 661Q180 661 168 651T147 610H108Q114 655 139 680T197 706Q222 706 247 695T294 673T332 662Q350 662 363 672T384 710Z" horiz-adv-x="525" unicode="ã"/>
			<glyph d="M267 531Q456 531 456 365V91Q456 53 493 53Q505 53 513 57V4Q495 0 473 0Q429 0 413 22T398 87V90H396Q360 33 317 9T208 -15Q127 -15 81 25T35 136Q35 187 58 219T128 269T286 299Q345 305 361 312T385 333T393 372Q393 428 359 453T258 478Q127 477 120 358H57Q62 444 116 487T267 531ZM391 282Q381 264 326 257L263 248Q170 235 134 209T98 140Q98 98 130 68T213 38Q290 38 341 83T393 199V282ZM141 711H209V610H141ZM318 711H386V610H318Z" horiz-adv-x="525" unicode="ä"/>
			<glyph d="M267 531Q456 531 456 365V91Q456 53 493 53Q505 53 513 57V4Q495 0 473 0Q429 0 413 22T398 87V90H396Q360 33 317 9T208 -15Q127 -15 81 25T35 136Q35 187 58 219T128 269T286 299Q345 305 361 312T385 333T393 372Q393 428 359 453T258 478Q127 477 120 358H57Q62 444 116 487T267 531ZM391 282Q381 264 326 257L263 248Q170 235 134 209T98 140Q98 98 130 68T213 38Q290 38 341 83T393 199V282ZM263 787Q307 787 338 755T370 680Q370 637 339 605T263 573Q219 573 187 604T156 680Q156 723 186 755T263 787ZM262 748Q235 748 215 729T195 680Q195 651 214 631T263 612Q292 612 311 631T331 680Q331 707 312 727T262 748Z" horiz-adv-x="525" unicode="å"/>
			<glyph d="M266 531Q421 531 438 424H440Q459 473 509 502T622 531Q731 531 787 456T844 241H456V220Q456 136 501 87T624 38Q746 38 777 167H840Q820 78 761 31T615 -15Q472 -15 426 115H424Q414 58 351 21T208 -15Q132 -15 83 23T35 136Q35 188 59 221T134 271T313 302Q363 308 378 323T393 371Q393 425 361 451T258 478Q193 478 157 447T120 358H57Q62 443 115 487T266 531ZM617 478Q545 478 500 426T456 300V294H781Q781 370 735 424T617 478ZM391 282Q382 267 338 259L283 250Q173 235 135 210T98 140Q98 96 131 67T213 38Q291 38 342 83T393 198V282Z" horiz-adv-x="876" unicode="æ"/>
			<glyph d="M281 531Q372 531 426 483T490 354H427Q400 478 281 478Q201 478 150 414T100 258Q100 166 149 102T281 38Q339 38 382 80T431 185H494Q481 91 426 39T286 -15L254 -54Q266 -50 288 -50Q318 -50 344 -66T370 -117Q370 -156 338 -179T260 -203Q206 -203 166 -182L180 -150Q188 -154 211 -159T258 -164Q312 -164 312 -121Q312 -103 299 -93T268 -83Q234 -83 218 -91L202 -76L252 -13Q157 -4 97 69T37 258Q37 376 104 453T281 531Z" horiz-adv-x="532" unicode="ç"/>
			<glyph d="M270 531Q374 531 435 457T497 256V241H100Q100 153 146 95T270 38Q398 38 432 170H495Q473 75 417 30T270 -15Q162 -15 99 58T37 258Q37 380 100 455T270 531ZM269 478Q201 478 156 428T100 294H434Q432 371 386 424T269 478ZM132 729H210L315 588H264Z" horiz-adv-x="535" unicode="è"/>
			<glyph d="M270 531Q374 531 435 457T497 256V241H100Q100 153 146 95T270 38Q398 38 432 170H495Q473 75 417 30T270 -15Q162 -15 99 58T37 258Q37 380 100 455T270 531ZM269 478Q201 478 156 428T100 294H434Q432 371 386 424T269 478ZM342 731H420L288 590H237Z" horiz-adv-x="535" unicode="é"/>
			<glyph d="M270 531Q374 531 435 457T497 256V241H100Q100 153 146 95T270 38Q398 38 432 170H495Q473 75 417 30T270 -15Q162 -15 99 58T37 258Q37 380 100 455T270 531ZM269 478Q201 478 156 428T100 294H434Q432 371 386 424T269 478ZM240 730H309L423 589H358L272 691L184 589H126Z" horiz-adv-x="535" unicode="ê"/>
			<glyph d="M270 531Q374 531 435 457T497 256V241H100Q100 153 146 95T270 38Q398 38 432 170H495Q473 75 417 30T270 -15Q162 -15 99 58T37 258Q37 380 100 455T270 531ZM269 478Q201 478 156 428T100 294H434Q432 371 386 424T269 478ZM150 711H218V610H150ZM327 711H395V610H327Z" horiz-adv-x="535" unicode="ë"/>
			<glyph d="M67 516H130V0H67ZM-43 729H35L140 588H89Z" horiz-adv-x="191" unicode="ì"/>
			<glyph d="M67 516H130V0H67ZM167 731H245L113 590H62Z" horiz-adv-x="191" unicode="í"/>
			<glyph d="M67 516H130V0H67ZM65 730H134L248 589H183L97 691L9 589H-49Z" horiz-adv-x="191" unicode="î"/>
			<glyph d="M67 516H130V0H67ZM-24 711H44V610H-24ZM153 711H221V610H153Z" horiz-adv-x="191" unicode="ï"/>
			<glyph d="M184 742Q250 705 288 678L402 742L435 710L326 649Q522 491 522 258Q522 132 456 58T277 -15Q167 -15 103 55T40 249Q40 361 105 433T277 506Q374 506 410 466H412Q367 553 279 623L174 564L141 596L241 652Q176 694 148 707ZM281 453Q195 453 149 397T103 248Q103 151 150 94T280 38Q364 38 411 95T459 250Q459 344 410 398T281 453ZZ" horiz-adv-x="568" unicode="ð"/>
			<glyph d="M293 531Q393 531 437 483T481 335V0H418V323Q418 478 287 478Q214 478 169 428T125 296V0H62V516H125V427H127Q145 474 190 502T293 531ZM394 710H432Q424 665 401 640T345 615Q317 615 286 630T239 653T207 661Q190 661 178 651T157 610H118Q124 655 149 680T207 706Q232 706 257 695T304 673T342 662Q360 662 373 672T394 710Z" horiz-adv-x="543" unicode="ñ"/>
			<glyph d="M281 531Q390 531 457 455T525 258Q525 139 458 62T281 -15Q170 -15 103 62T37 258Q37 377 103 454T281 531ZM280 478Q199 478 149 414T100 258Q100 163 151 100T281 38Q360 38 411 100T462 258Q462 350 412 414T280 478ZM144 729H222L327 588H276Z" horiz-adv-x="562" unicode="ò"/>
			<glyph d="M281 531Q390 531 457 455T525 258Q525 139 458 62T281 -15Q170 -15 103 62T37 258Q37 377 103 454T281 531ZM280 478Q199 478 149 414T100 258Q100 163 151 100T281 38Q360 38 411 100T462 258Q462 350 412 414T280 478ZM354 731H432L300 590H249Z" horiz-adv-x="562" unicode="ó"/>
			<glyph d="M281 531Q390 531 457 455T525 258Q525 139 458 62T281 -15Q170 -15 103 62T37 258Q37 377 103 454T281 531ZM280 478Q199 478 149 414T100 258Q100 163 151 100T281 38Q360 38 411 100T462 258Q462 350 412 414T280 478ZM252 730H321L435 589H370L284 691L196 589H138Z" horiz-adv-x="562" unicode="ô"/>
			<glyph d="M281 531Q390 531 457 455T525 258Q525 139 458 62T281 -15Q170 -15 103 62T37 258Q37 377 103 454T281 531ZM280 478Q199 478 149 414T100 258Q100 163 151 100T281 38Q360 38 411 100T462 258Q462 350 412 414T280 478ZM405 710H443Q435 665 412 640T356 615Q328 615 297 630T250 653T218 661Q201 661 189 651T168 610H129Q135 655 160 680T218 706Q243 706 268 695T315 673T353 662Q371 662 384 672T405 710Z" horiz-adv-x="562" unicode="õ"/>
			<glyph d="M281 531Q390 531 457 455T525 258Q525 139 458 62T281 -15Q170 -15 103 62T37 258Q37 377 103 454T281 531ZM280 478Q199 478 149 414T100 258Q100 163 151 100T281 38Q360 38 411 100T462 258Q462 350 412 414T280 478ZM162 711H230V610H162ZM339 711H407V610H339Z" horiz-adv-x="562" unicode="ö"/>
			<glyph d="M306 509Q329 509 345 492T362 453Q362 431 345 414T307 397Q284 397 267 413T250 453Q250 476 266 492T306 509ZM55 278H558V225H55ZM306 106Q329 106 345 89T362 50Q362 28 345 11T307 -6Q283 -6 266 10T250 50Q250 74 266 90T306 106Z" horiz-adv-x="612" unicode="÷"/>
			<glyph d="M281 531Q387 531 451 463L503 519L525 499L471 440Q525 365 525 258Q525 139 458 62T281 -15Q176 -15 113 53L54 -11L32 9L93 76Q37 149 37 258Q37 379 104 455T281 531ZM280 478Q198 478 149 413T100 258Q100 181 136 123L409 418Q361 478 280 478ZM427 392L154 97Q202 38 281 38Q362 38 412 101T462 258Q462 334 427 392Z" horiz-adv-x="562" unicode="ø"/>
			<glyph d="M62 516H125V193Q125 108 158 73T262 38Q331 38 374 93T418 246V516H481V0H423V93H421Q396 42 349 13T243 -15Q62 -15 62 181ZM133 729H211L316 588H265Z" horiz-adv-x="543" unicode="ù"/>
			<glyph d="M62 516H125V193Q125 108 158 73T262 38Q331 38 374 93T418 246V516H481V0H423V93H421Q396 42 349 13T243 -15Q62 -15 62 181ZM343 731H421L289 590H238Z" horiz-adv-x="543" unicode="ú"/>
			<glyph d="M62 516H125V193Q125 108 158 73T262 38Q331 38 374 93T418 246V516H481V0H423V93H421Q396 42 349 13T243 -15Q62 -15 62 181ZM241 730H310L424 589H359L273 691L185 589H127Z" horiz-adv-x="543" unicode="û"/>
			<glyph d="M62 516H125V193Q125 108 158 73T262 38Q331 38 374 93T418 246V516H481V0H423V93H421Q396 42 349 13T243 -15Q62 -15 62 181ZM151 711H219V610H151ZM328 711H396V610H328Z" horiz-adv-x="543" unicode="ü"/>
			<glyph d="M5 516H72L242 76L401 516H464L240 -79Q214 -147 186 -169T107 -191Q71 -191 56 -186V-133Q76 -138 99 -138Q125 -138 141 -128T169 -98T211 2ZM312 731H390L258 590H207Z" horiz-adv-x="475" unicode="ý"/>
			<glyph d="M66 714H129V418H131Q149 471 200 501T311 531Q418 531 480 455T542 258Q542 133 479 59T311 -15Q249 -15 199 14T131 98H129V-191H66ZM309 478Q225 478 177 417T129 258Q129 158 177 98T310 38Q389 38 434 99T479 258Q479 355 433 416T309 478Z" horiz-adv-x="586" unicode="þ"/>
			<glyph d="M5 516H72L242 76L401 516H464L240 -79Q214 -147 186 -169T107 -191Q71 -191 56 -186V-133Q76 -138 99 -138Q125 -138 141 -128T169 -98T211 2ZM120 711H188V610H120ZM297 711H365V610H297Z" horiz-adv-x="475" unicode="ÿ"/>
			<glyph d="M280 714H356L636 0H563L476 222H151L65 0H-8ZM315 646L172 280H453ZM159 873H488V828H159Z" horiz-adv-x="628" unicode="Ā"/>
			<glyph d="M267 531Q456 531 456 365V91Q456 53 493 53Q505 53 513 57V4Q495 0 473 0Q429 0 413 22T398 87V90H396Q360 33 317 9T208 -15Q127 -15 81 25T35 136Q35 187 58 219T128 269T286 299Q345 305 361 312T385 333T393 372Q393 428 359 453T258 478Q127 477 120 358H57Q62 444 116 487T267 531ZM391 282Q381 264 326 257L263 248Q170 235 134 209T98 140Q98 98 130 68T213 38Q290 38 341 83T393 199V282ZM101 683H430V638H101Z" horiz-adv-x="525" unicode="ā"/>
			<glyph d="M280 714H356L636 0H563L476 222H151L65 0H-8ZM315 646L172 280H453ZM180 914H219Q221 878 250 855T322 832Q362 832 392 854T428 914H467Q459 855 421 821T322 787Q260 787 223 820T180 914Z" horiz-adv-x="628" unicode="Ă"/>
			<glyph d="M267 531Q456 531 456 365V91Q456 53 493 53Q505 53 513 57V4Q495 0 473 0Q429 0 413 22T398 87V90H396Q360 33 317 9T208 -15Q127 -15 81 25T35 136Q35 187 58 219T128 269T286 299Q345 305 361 312T385 333T393 372Q393 428 359 453T258 478Q127 477 120 358H57Q62 444 116 487T267 531ZM391 282Q381 264 326 257L263 248Q170 235 134 209T98 140Q98 98 130 68T213 38Q290 38 341 83T393 199V282ZM122 724H161Q163 687 193 664T264 642Q304 642 334 664T370 724H409Q401 665 362 631T264 597Q203 597 165 630T122 724Z" horiz-adv-x="525" unicode="ă"/>
			<glyph d="M280 714H356L636 0H601Q547 -45 533 -68T519 -116Q519 -142 533 -153T563 -164Q596 -164 618 -123L647 -136Q631 -171 608 -187T549 -203Q505 -203 481 -180T458 -121Q458 -89 485 -59T563 0L476 222H151L65 0H-8ZM315 646L172 280H453Z" horiz-adv-x="628" unicode="Ą"/>
			<glyph d="M267 531Q456 531 456 365V92Q456 53 493 53Q505 53 513 57V4Q489 0 468 0Q422 -38 404 -62T386 -117Q386 -139 398 -151T430 -164Q462 -164 485 -123L514 -136Q499 -169 476 -186T416 -203Q371 -203 348 -180T325 -121Q325 -92 349 -62T438 5Q398 18 398 86V90H396Q357 31 316 8T209 -15Q129 -15 82 24T35 136Q35 187 58 218T125 268T295 300Q355 307 367 314T386 336T393 372Q393 426 360 452T258 478Q193 478 157 447T120 358H57Q67 531 267 531ZM391 282Q382 267 338 259L282 250Q175 236 136 211T98 140Q98 95 131 66T213 38Q292 38 342 83T393 200V282Z" horiz-adv-x="525" unicode="ą"/>
			<glyph d="M374 729Q487 729 567 664T661 498H593Q576 576 517 623T374 671Q250 671 177 584T105 357Q105 216 177 129T374 43Q468 43 530 106T603 272H671Q657 140 577 62T374 -15Q221 -15 129 88T37 357Q37 524 129 626T374 729ZM448 919H526L394 778H343Z" horiz-adv-x="702" unicode="Ć"/>
			<glyph d="M281 531Q373 531 426 483T490 354H427Q400 478 281 478Q200 478 150 414T100 258Q100 162 151 100T281 38Q339 38 382 79T431 185H494Q481 90 424 37T281 -15Q170 -15 103 62T37 258Q37 377 103 454T281 531ZM351 731H429L297 590H246Z" horiz-adv-x="532" unicode="ć"/>
			<glyph d="M374 729Q487 729 567 664T661 498H593Q576 576 517 623T374 671Q250 671 177 584T105 357Q105 216 177 129T374 43Q468 43 530 106T603 272H671Q657 140 577 62T374 -15Q221 -15 129 88T37 357Q37 524 129 626T374 729ZM346 919H415L529 778H464L378 880L290 778H232Z" horiz-adv-x="702" unicode="Ĉ"/>
			<glyph d="M281 531Q373 531 426 483T490 354H427Q400 478 281 478Q200 478 150 414T100 258Q100 162 151 100T281 38Q339 38 382 79T431 185H494Q481 90 424 37T281 -15Q170 -15 103 62T37 258Q37 377 103 454T281 531ZM249 730H318L432 589H367L281 691L193 589H135Z" horiz-adv-x="532" unicode="ĉ"/>
			<glyph d="M374 729Q487 729 567 664T661 498H593Q576 576 517 623T374 671Q250 671 177 584T105 357Q105 216 177 129T374 43Q468 43 530 106T603 272H671Q657 140 577 62T374 -15Q221 -15 129 88T37 357Q37 524 129 626T374 729ZM336 901H404V800H336Z" horiz-adv-x="702" unicode="Ċ"/>
			<glyph d="M281 531Q373 531 426 483T490 354H427Q400 478 281 478Q200 478 150 414T100 258Q100 162 151 100T281 38Q339 38 382 79T431 185H494Q481 90 424 37T281 -15Q170 -15 103 62T37 258Q37 377 103 454T281 531ZM248 711H316V610H248Z" horiz-adv-x="532" unicode="ċ"/>
			<glyph d="M374 729Q487 729 567 664T661 498H593Q576 576 517 623T374 671Q250 671 177 584T105 357Q105 216 177 129T374 43Q468 43 530 106T603 272H671Q657 140 577 62T374 -15Q221 -15 129 88T37 357Q37 524 129 626T374 729ZM230 919H295L381 817L469 919H527L413 778H344Z" horiz-adv-x="702" unicode="Č"/>
			<glyph d="M281 531Q373 531 426 483T490 354H427Q400 478 281 478Q200 478 150 414T100 258Q100 162 151 100T281 38Q339 38 382 79T431 185H494Q481 90 424 37T281 -15Q170 -15 103 62T37 258Q37 377 103 454T281 531ZM136 731H201L287 629L375 731H433L319 590H250Z" horiz-adv-x="532" unicode="č"/>
			<glyph d="M71 714H306Q646 714 646 357Q646 0 305 0H71ZM139 656V58H283Q441 58 509 129T578 357Q578 517 508 586T281 656ZM162 919H227L313 817L401 919H459L345 778H276Z" horiz-adv-x="683" unicode="Ď"/>
			<glyph d="M454 714H517V0H459V98H457Q437 49 386 17T273 -15Q167 -15 104 58T41 258Q41 381 103 456T273 531Q336 531 386 499T452 418H454ZM273 478Q195 478 149 417T104 258Q104 161 149 99T273 38Q355 38 404 96T454 258Q454 360 405 419T273 478ZM625 714H703L617 573H570Z" horiz-adv-x="651" unicode="ď"/>
			<glyph d="M71 714H303Q646 714 646 357Q646 0 305 0H71V348H-1V393H71ZM139 656V393H375V348H139V58H283Q440 58 509 129T578 357Q578 517 508 586T284 656Z" horiz-adv-x="683" unicode="Đ"/>
			<glyph d="M454 714H517V629H601V584H517V0H459V98H457Q435 47 382 16T273 -15Q165 -15 103 60T41 258Q41 381 103 456T273 531Q333 531 382 501T452 418H454V584H281V629H454ZM273 478Q195 478 149 416T104 258Q104 161 149 99T273 38Q355 38 404 96T454 258Q454 360 405 419T273 478Z" horiz-adv-x="604" unicode="đ"/>
			<glyph d="M71 714H564V656H139V398H537V340H139V58H569V0H71ZM158 873H487V828H158Z" horiz-adv-x="610" unicode="Ē"/>
			<glyph d="M270 531Q374 531 435 457T497 256V241H100Q100 153 146 95T270 38Q398 38 432 170H495Q473 75 417 30T270 -15Q162 -15 99 58T37 258Q37 380 100 455T270 531ZM269 478Q201 478 156 428T100 294H434Q432 371 386 424T269 478ZM110 683H439V638H110Z" horiz-adv-x="535" unicode="ē"/>
			<glyph d="M71 714H564V656H139V398H537V340H139V58H569V0H71ZM179 914H218Q220 878 249 855T321 832Q361 832 391 854T427 914H466Q458 855 420 821T321 787Q259 787 222 820T179 914Z" horiz-adv-x="610" unicode="Ĕ"/>
			<glyph d="M270 531Q374 531 435 457T497 256V241H100Q100 153 146 95T270 38Q398 38 432 170H495Q473 75 417 30T270 -15Q162 -15 99 58T37 258Q37 380 100 455T270 531ZM269 478Q201 478 156 428T100 294H434Q432 371 386 424T269 478ZM131 724H170Q172 687 202 664T273 642Q313 642 343 664T379 724H418Q410 665 371 631T273 597Q212 597 174 630T131 724Z" horiz-adv-x="535" unicode="ĕ"/>
			<glyph d="M71 714H564V656H139V398H537V340H139V58H569V0H71ZM288 901H356V800H288Z" horiz-adv-x="610" unicode="Ė"/>
			<glyph d="M270 531Q374 531 435 457T497 256V241H100Q100 153 146 95T270 38Q398 38 432 170H495Q473 75 417 30T270 -15Q162 -15 99 58T37 258Q37 380 100 455T270 531ZM269 478Q201 478 156 428T100 294H434Q432 371 386 424T269 478ZM239 711H307V610H239Z" horiz-adv-x="535" unicode="ė"/>
			<glyph d="M71 714H564V656H139V398H537V340H139V58H569V0H523Q481 -34 461 -59T441 -117Q441 -141 454 -152T485 -164Q518 -164 540 -123L569 -136Q553 -171 530 -187T471 -203Q425 -203 402 -179T380 -121Q380 -89 405 -62T485 0H71Z" horiz-adv-x="610" unicode="Ę"/>
			<glyph d="M270 531Q374 531 435 456T497 257V241H100Q100 155 146 96T270 38Q398 38 432 170H495Q475 85 429 40T305 -13Q270 -43 254 -65T239 -117Q239 -143 253 -153T283 -164Q318 -164 338 -123L367 -136Q350 -173 326 -188T269 -203Q225 -203 201 -180T178 -121Q178 -91 199 -66T259 -15Q154 -11 95 62T37 258Q37 382 101 456T270 531ZM269 478Q202 478 156 429T100 294H434Q432 375 385 426T269 478Z" horiz-adv-x="535" unicode="ę"/>
			<glyph d="M71 714H564V656H139V398H537V340H139V58H569V0H71ZM172 919H237L323 817L411 919H469L355 778H286Z" horiz-adv-x="610" unicode="Ě"/>
			<glyph d="M270 531Q374 531 435 457T497 256V241H100Q100 153 146 95T270 38Q398 38 432 170H495Q473 75 417 30T270 -15Q162 -15 99 58T37 258Q37 380 100 455T270 531ZM269 478Q201 478 156 428T100 294H434Q432 371 386 424T269 478ZM125 731H190L276 629L364 731H422L308 590H239Z" horiz-adv-x="535" unicode="ě"/>
			<glyph d="M374 729Q493 729 572 666T672 492H604Q598 562 532 616T374 671Q291 671 230 631T137 519T105 357Q105 216 178 129T374 43Q487 43 554 112T621 299V305H378V363H681V0H632L623 130H621Q588 59 523 22T374 -15Q221 -15 129 88T37 357Q37 464 78 549T196 682T374 729ZM347 919H416L530 778H465L379 880L291 778H233Z" horiz-adv-x="739" unicode="Ĝ"/>
			<glyph d="M270 531Q325 531 369 501T434 427H436V516H499V40Q499 -83 444 -144T271 -206Q178 -206 119 -164T56 -50H119Q127 -99 167 -126T270 -153Q359 -153 397 -103T436 40V112H434Q411 61 367 33T270 6Q161 6 99 74T37 271Q37 384 100 457T270 531ZM269 478Q191 478 145 419T100 264Q100 172 146 115T270 59Q342 59 389 116T436 264Q436 358 391 418T269 478ZM248 730H317L431 589H366L280 691L192 589H134Z" horiz-adv-x="562" unicode="ĝ"/>
			<glyph d="M374 729Q493 729 572 666T672 492H604Q598 562 532 616T374 671Q291 671 230 631T137 519T105 357Q105 216 178 129T374 43Q487 43 554 112T621 299V305H378V363H681V0H632L623 130H621Q588 59 523 22T374 -15Q221 -15 129 88T37 357Q37 464 78 549T196 682T374 729ZM238 914H277Q279 878 308 855T380 832Q420 832 450 854T486 914H525Q517 855 479 821T380 787Q318 787 281 820T238 914Z" horiz-adv-x="739" unicode="Ğ"/>
			<glyph d="M270 531Q325 531 369 501T434 427H436V516H499V40Q499 -83 444 -144T271 -206Q178 -206 119 -164T56 -50H119Q127 -99 167 -126T270 -153Q359 -153 397 -103T436 40V112H434Q411 61 367 33T270 6Q161 6 99 74T37 271Q37 384 100 457T270 531ZM269 478Q191 478 145 419T100 264Q100 172 146 115T270 59Q342 59 389 116T436 264Q436 358 391 418T269 478ZM139 724H178Q180 687 210 664T281 642Q321 642 351 664T387 724H426Q418 665 379 631T281 597Q220 597 182 630T139 724Z" horiz-adv-x="562" unicode="ğ"/>
			<glyph d="M374 729Q493 729 572 666T672 492H604Q598 562 532 616T374 671Q291 671 230 631T137 519T105 357Q105 216 178 129T374 43Q487 43 554 112T621 299V305H378V363H681V0H632L623 130H621Q588 59 523 22T374 -15Q221 -15 129 88T37 357Q37 464 78 549T196 682T374 729ZM346 901H414V800H346Z" horiz-adv-x="739" unicode="Ġ"/>
			<glyph d="M270 531Q325 531 369 501T434 427H436V516H499V40Q499 -83 444 -144T271 -206Q178 -206 119 -164T56 -50H119Q127 -99 167 -126T270 -153Q359 -153 397 -103T436 40V112H434Q411 61 367 33T270 6Q161 6 99 74T37 271Q37 384 100 457T270 531ZM269 478Q191 478 145 419T100 264Q100 172 146 115T270 59Q342 59 389 116T436 264Q436 358 391 418T269 478ZM248 711H316V610H248Z" horiz-adv-x="562" unicode="ġ"/>
			<glyph d="M374 729Q493 729 572 666T672 492H604Q598 562 532 616T374 671Q291 671 230 631T137 519T105 357Q105 216 178 129T374 43Q487 43 554 112T621 299V305H378V363H681V0H632L623 130H621Q588 59 523 22T374 -15Q221 -15 129 88T37 357Q37 464 78 549T196 682T374 729ZM337 -50H423V-131Q423 -166 400 -184T337 -203V-175Q373 -169 376 -141H337Z" horiz-adv-x="739" unicode="Ģ"/>
			<glyph d="M270 531Q325 531 369 501T434 427H436V516H499V40Q499 -83 444 -144T271 -206Q178 -206 119 -164T56 -50H119Q127 -99 167 -126T270 -153Q359 -153 397 -103T436 40V112H434Q411 61 367 33T270 6Q161 6 99 74T37 271Q37 384 100 457T270 531ZM269 478Q191 478 145 419T100 264Q100 172 146 115T270 59Q342 59 389 116T436 264Q436 358 391 418T269 478ZM324 776V748Q288 742 285 714H324V623H238V703Q238 772 324 776Z" horiz-adv-x="562" unicode="ģ"/>
			<glyph d="M71 714H139V404H563V714H631V0H563V346H139V0H71ZM325 919H394L508 778H443L357 880L269 778H211Z" horiz-adv-x="702" unicode="Ĥ"/>
			<glyph d="M62 714H125V427H127Q145 474 190 502T293 531Q393 531 437 482T481 334V0H418V324Q418 478 287 478Q212 478 168 427T125 296V0H62ZM233 919H302L416 778H351L265 880L177 778H119Z" horiz-adv-x="543" unicode="ĥ"/>
			<glyph d="M71 714H139V516H563V714H631V0H563V336H139V0H71ZM139 471V394H563V471Z" horiz-adv-x="702" unicode="Ħ"/>
			<glyph d="M85 714H148V629H301V584H148V427H150Q168 474 213 502T316 531Q413 531 458 483T504 332V0H441V323Q441 478 310 478Q237 478 192 427T148 295V0H85V584H3V629H85Z" horiz-adv-x="566" unicode="ħ"/>
			<glyph d="M76 714H144V0H76ZM237 900H275Q266 852 242 828T188 805Q156 805 113 828Q71 851 50 851Q12 851 0 800H-39Q-34 843 -9 869T50 896Q83 896 125 874Q166 852 185 852Q205 852 217 863T237 900Z" horiz-adv-x="220" unicode="Ĩ"/>
			<glyph d="M67 516H130V0H67ZM218 710H256Q248 665 225 640T169 615Q141 615 110 630T63 653T31 661Q14 661 2 651T-19 610H-58Q-52 655 -27 680T31 706Q56 706 81 695T128 673T166 662Q184 662 197 672T218 710Z" horiz-adv-x="191" unicode="ĩ"/>
			<glyph d="M76 714H144V0H76ZM-46 873H283V828H-46Z" horiz-adv-x="220" unicode="Ī"/>
			<glyph d="M67 516H130V0H67ZM-65 683H264V638H-65Z" horiz-adv-x="191" unicode="ī"/>
			<glyph d="M76 714H144V0Q108 -32 89 -58T70 -117Q70 -140 81 -152T110 -164Q142 -164 159 -123L186 -136Q172 -168 152 -185T97 -203Q59 -203 37 -181T15 -121Q15 -87 40 -58T110 0H76Z" horiz-adv-x="220" unicode="Į"/>
			<glyph d="M64 714H127V613H64ZM64 516H127V0Q89 -34 71 -60T53 -117Q53 -142 66 -153T93 -164Q125 -164 142 -123L168 -136Q154 -170 134 -186T80 -203Q43 -203 20 -181T-2 -121Q-2 -66 93 0H64Z" horiz-adv-x="191" unicode="į"/>
			<glyph d="M76 714H144V0H76ZM83 901H151V800H83Z" horiz-adv-x="220" unicode="İ"/>
			<glyph d="M67 516H130V0H67Z" unicode="ı"/>
			<glyph d="M76 714H144V0H76ZM581 714H649V197Q649 88 601 36T442 -15Q242 -15 242 227V229H310Q310 124 344 83T448 43Q522 43 551 82T581 223Z" horiz-adv-x="725" unicode="Ĳ"/>
			<glyph d="M64 714H127V613H64ZM64 516H127V0H64ZM249 714H312V613H249ZM249 516H312V-50Q312 -125 284 -158T202 -191Q194 -191 158 -189V-137Q165 -138 188 -138Q224 -138 236 -121T249 -64Z" horiz-adv-x="379" unicode="ĳ"/>
			<glyph d="M359 714H427V197Q427 88 379 36T220 -15Q20 -15 20 227V229H88Q88 124 122 83T226 43Q300 43 329 82T359 223ZM362 919H431L545 778H480L394 880L306 778H248Z" horiz-adv-x="498" unicode="Ĵ"/>
			<glyph d="M67 516H130V-50Q130 -124 102 -157T21 -191Q4 -191 -24 -189V-137Q-17 -138 6 -138Q42 -138 54 -121T67 -61ZM62 730H131L245 589H180L94 691L6 589H-52Z" horiz-adv-x="191" unicode="ĵ"/>
			<glyph d="M71 714H139V330L554 714H646L327 419L661 0H573L276 372L139 245V0H71ZM290 -50H376V-131Q376 -166 353 -184T290 -203V-175Q326 -169 329 -141H290Z" horiz-adv-x="657" unicode="Ķ"/>
			<glyph d="M63 714H126V266L412 516H496L276 325L511 0H432L228 281L126 196V0H63ZM227 -50H313V-131Q313 -166 290 -184T227 -203V-175Q263 -169 266 -141H227Z" horiz-adv-x="506" unicode="ķ"/>
			<glyph d="M71 714H139V58H539V0H71ZM190 919H268L136 778H85Z" horiz-adv-x="565" unicode="Ĺ"/>
			<glyph d="M64 714H127V0H64ZM170 919H248L116 778H65Z" horiz-adv-x="191" unicode="ĺ"/>
			<glyph d="M71 714H139V58H539V0H71ZM263 -50H349V-131Q349 -166 326 -184T263 -203V-175Q299 -169 302 -141H263Z" horiz-adv-x="565" unicode="Ļ"/>
			<glyph d="M64 714H127V0H64ZM56 -50H142V-131Q142 -166 119 -184T56 -203V-175Q92 -169 95 -141H56Z" horiz-adv-x="191" unicode="ļ"/>
			<glyph d="M71 714H139V58H539V0H71ZM306 714H384L298 573H251Z" horiz-adv-x="565" unicode="Ľ"/>
			<glyph d="M64 714H127V0H64ZM235 714H313L227 573H180Z" horiz-adv-x="261" unicode="ľ"/>
			<glyph d="M71 714H139V58H539V0H71ZM294 436H362V335H294Z" horiz-adv-x="565" unicode="Ŀ"/>
			<glyph d="M64 714H127V0H64ZM194 436H262V335H194Z" horiz-adv-x="292" unicode="ŀ"/>
			<glyph d="M71 714H139V353L382 521V465L139 298V58H539V0H71V251L-11 194V250L71 306Z" horiz-adv-x="565" unicode="Ł"/>
			<glyph d="M67 714H130V447L197 502V447L130 392V0H67V340L0 285V340L67 395Z" unicode="ł"/>
			<glyph d="M70 714H146L562 110H564V714H632V0H556L140 604H138V0H70ZM433 919H511L379 778H328Z" horiz-adv-x="702" unicode="Ń"/>
			<glyph d="M293 531Q393 531 437 483T481 335V0H418V323Q418 478 287 478Q214 478 169 428T125 296V0H62V516H125V427H127Q145 474 190 502T293 531ZM343 731H421L289 590H238Z" horiz-adv-x="543" unicode="ń"/>
			<glyph d="M70 714H146L562 110H564V714H632V0H556L140 604H138V0H70ZM317 -50H403V-131Q403 -166 380 -184T317 -203V-175Q353 -169 356 -141H317Z" horiz-adv-x="702" unicode="Ņ"/>
			<glyph d="M293 531Q393 531 437 483T481 335V0H418V323Q418 478 287 478Q214 478 169 428T125 296V0H62V516H125V427H127Q145 474 190 502T293 531ZM233 -50H319V-131Q319 -166 296 -184T233 -203V-175Q269 -169 272 -141H233Z" horiz-adv-x="543" unicode="ņ"/>
			<glyph d="M70 714H146L562 110H564V714H632V0H556L140 604H138V0H70ZM216 919H281L367 817L455 919H513L399 778H330Z" horiz-adv-x="702" unicode="Ň"/>
			<glyph d="M293 531Q393 531 437 483T481 335V0H418V323Q418 478 287 478Q214 478 169 428T125 296V0H62V516H125V427H127Q145 474 190 502T293 531ZM125 731H190L276 629L364 731H422L308 590H239Z" horiz-adv-x="543" unicode="ň"/>
			<glyph d="M311 531Q411 531 455 483T499 335V0H436V323Q436 478 305 478Q232 478 187 428T143 296V0H80V516H143V427H145Q163 474 208 502T311 531ZM25 805H111V724Q111 689 88 671T25 652V680Q61 686 64 714H25Z" horiz-adv-x="561" unicode="ŉ"/>
			<glyph d="M370 729Q470 729 546 681T664 548T706 357Q706 191 614 88T370 -15Q215 -15 124 89T33 357Q33 524 125 626T370 729ZM369 671Q246 671 173 584T101 357Q101 216 174 129T370 43Q491 43 564 129T638 357Q638 498 564 584T369 671ZM214 873H543V828H214Z" horiz-adv-x="739" unicode="Ō"/>
			<glyph d="M281 531Q390 531 457 455T525 258Q525 139 458 62T281 -15Q170 -15 103 62T37 258Q37 377 103 454T281 531ZM280 478Q199 478 149 414T100 258Q100 163 151 100T281 38Q360 38 411 100T462 258Q462 350 412 414T280 478ZM122 683H451V638H122Z" horiz-adv-x="562" unicode="ō"/>
			<glyph d="M370 729Q470 729 546 681T664 548T706 357Q706 191 614 88T370 -15Q215 -15 124 89T33 357Q33 524 125 626T370 729ZM369 671Q246 671 173 584T101 357Q101 216 174 129T370 43Q491 43 564 129T638 357Q638 498 564 584T369 671ZM235 914H274Q276 878 305 855T377 832Q417 832 447 854T483 914H522Q514 855 476 821T377 787Q315 787 278 820T235 914Z" horiz-adv-x="739" unicode="Ŏ"/>
			<glyph d="M281 531Q390 531 457 455T525 258Q525 139 458 62T281 -15Q170 -15 103 62T37 258Q37 377 103 454T281 531ZM280 478Q199 478 149 414T100 258Q100 163 151 100T281 38Q360 38 411 100T462 258Q462 350 412 414T280 478ZM143 724H182Q184 687 214 664T285 642Q325 642 355 664T391 724H430Q422 665 383 631T285 597Q224 597 186 630T143 724Z" horiz-adv-x="562" unicode="ŏ"/>
			<glyph d="M370 729Q470 729 546 681T664 548T706 357Q706 191 614 88T370 -15Q215 -15 124 89T33 357Q33 524 125 626T370 729ZM369 671Q246 671 173 584T101 357Q101 216 174 129T370 43Q491 43 564 129T638 357Q638 498 564 584T369 671ZM370 923H446L320 782H269ZM526 923H602L476 782H425Z" horiz-adv-x="739" unicode="Ő"/>
			<glyph d="M281 531Q390 531 457 455T525 258Q525 139 458 62T281 -15Q170 -15 103 62T37 258Q37 377 103 454T281 531ZM280 478Q199 478 149 414T100 258Q100 163 151 100T281 38Q360 38 411 100T462 258Q462 350 412 414T280 478ZM278 731H354L228 590H177ZM434 731H510L384 590H333Z" horiz-adv-x="562" unicode="ő"/>
			<glyph d="M374 729Q502 729 568 655V714H1042V656H636V398H1004V340H636V58H1045V0H568V70Q533 29 480 7T374 -15Q225 -15 130 90T36 357Q36 460 78 546T198 681T374 729ZM374 671Q253 671 178 582T104 357Q104 218 179 130T374 43Q432 43 470 59T538 108T568 182V513Q568 562 563 575Q548 613 492 642T374 671Z" horiz-adv-x="1072" unicode="Œ"/>
			<glyph d="M269 531Q413 531 453 404H455Q476 461 526 496T646 531Q756 531 811 460T866 241H482Q482 153 525 95T644 38Q765 38 802 166H865Q844 78 785 31T637 -15Q570 -15 518 21T453 116H451Q433 51 384 18T266 -15Q160 -15 99 57T39 258Q39 381 101 456T269 531ZM267 478Q188 478 145 417T102 247Q102 149 147 93T267 38Q419 38 419 262Q419 478 267 478ZM642 478Q570 478 526 427T482 294H803Q803 376 758 427T642 478Z" horiz-adv-x="895" unicode="œ"/>
			<glyph d="M71 714H396Q494 714 554 666T615 528Q615 456 578 408T476 346V344Q536 335 567 296T602 165L604 123Q608 31 634 0H559Q545 21 539 131Q533 236 500 276T407 317H139V0H71ZM139 656V375H394Q457 375 502 413T547 514Q547 583 507 619T394 656ZM388 919H466L334 778H283Z" horiz-adv-x="665" unicode="Ŕ"/>
			<glyph d="M305 523H318V460H308Q229 460 177 407T126 274V0H63V516H121V395H123Q146 457 194 490T305 523ZM270 731H348L216 590H165Z" horiz-adv-x="321" unicode="ŕ"/>
			<glyph d="M71 714H396Q494 714 554 666T615 528Q615 456 578 408T476 346V344Q536 335 567 296T602 165L604 123Q608 31 634 0H559Q545 21 539 131Q533 236 500 276T407 317H139V0H71ZM139 656V375H394Q457 375 502 413T547 514Q547 583 507 619T394 656ZM304 -50H390V-131Q390 -166 367 -184T304 -203V-175Q340 -169 343 -141H304Z" horiz-adv-x="665" unicode="Ŗ"/>
			<glyph d="M305 523H318V460H308Q229 460 177 407T126 274V0H63V516H121V395H123Q146 457 194 490T305 523ZM56 -50H142V-131Q142 -166 119 -184T56 -203V-175Q92 -169 95 -141H56Z" horiz-adv-x="321" unicode="ŗ"/>
			<glyph d="M71 714H396Q494 714 554 666T615 528Q615 456 578 408T476 346V344Q536 335 567 296T602 165L604 123Q608 31 634 0H559Q545 21 539 131Q533 236 500 276T407 317H139V0H71ZM139 656V375H394Q457 375 502 413T547 514Q547 583 507 619T394 656ZM167 919H232L318 817L406 919H464L350 778H281Z" horiz-adv-x="665" unicode="Ř"/>
			<glyph d="M305 523H318V460H308Q229 460 177 407T126 274V0H63V516H121V395H123Q146 457 194 490T305 523ZM50 731H115L201 629L289 731H347L233 590H164Z" horiz-adv-x="321" unicode="ř"/>
			<glyph d="M303 729Q422 729 495 668T568 507H500Q496 581 443 626T304 671Q221 671 173 634T126 529Q126 490 149 463T226 422L400 379Q504 353 548 307T593 189Q593 93 520 39T320 -15Q183 -15 109 46T35 217V235H103V229Q103 43 334 43Q413 43 469 83T525 188Q525 281 382 316L219 356Q139 376 98 416T58 528Q58 585 86 630T170 702T303 729ZM391 919H469L337 778H286Z" horiz-adv-x="628" unicode="Ś"/>
			<glyph d="M246 531Q330 531 381 487T435 365H372Q370 419 333 448T237 478Q181 478 148 454T115 389Q115 326 231 300Q351 273 378 259T422 225T446 185T453 140Q453 70 395 27T246 -15Q50 -15 34 167H97Q101 105 142 71T249 38Q312 38 351 65T390 135Q390 175 360 196T268 232L201 247Q125 264 88 296T52 386Q52 454 107 492T246 531ZM320 731H398L266 590H215Z" horiz-adv-x="487" unicode="ś"/>
			<glyph d="M303 729Q422 729 495 668T568 507H500Q496 581 443 626T304 671Q221 671 173 634T126 529Q126 490 149 463T226 422L400 379Q504 353 548 307T593 189Q593 93 520 39T320 -15Q183 -15 109 46T35 217V235H103V229Q103 43 334 43Q413 43 469 83T525 188Q525 281 382 316L219 356Q139 376 98 416T58 528Q58 585 86 630T170 702T303 729ZM288 919H357L471 778H406L320 880L232 778H174Z" horiz-adv-x="628" unicode="Ŝ"/>
			<glyph d="M246 531Q330 531 381 487T435 365H372Q370 419 333 448T237 478Q181 478 148 454T115 389Q115 326 231 300Q351 273 378 259T422 225T446 185T453 140Q453 70 395 27T246 -15Q50 -15 34 167H97Q101 105 142 71T249 38Q312 38 351 65T390 135Q390 175 360 196T268 232L201 247Q125 264 88 296T52 386Q52 454 107 492T246 531ZM218 730H287L401 589H336L250 691L162 589H104Z" horiz-adv-x="487" unicode="ŝ"/>
			<glyph d="M304 729Q422 729 495 669T568 507H500Q496 583 441 627T305 671Q219 671 172 633T126 529Q126 448 225 422L400 379Q498 355 545 309T593 189Q593 128 560 80T469 9T323 -15L291 -54Q303 -50 325 -50Q358 -50 382 -67T407 -117Q407 -156 375 -179T297 -203Q243 -203 203 -182L217 -150Q225 -154 248 -159T295 -164Q349 -164 349 -121Q349 -104 337 -93T305 -83Q273 -83 255 -91L239 -76L289 -14Q167 -6 101 53T35 218V235H103V229Q103 43 335 43Q413 43 469 83T525 188Q525 280 386 315L219 356Q134 376 96 418T58 527Q58 583 86 628T168 701T304 729Z" horiz-adv-x="628" unicode="Ş"/>
			<glyph d="M246 531Q329 531 380 488T435 365H372Q370 419 333 448T237 478Q182 478 148 453T115 389Q115 326 231 300L320 280Q453 249 453 140Q453 70 397 28T255 -15L223 -54Q237 -50 257 -50Q287 -50 313 -66T339 -117Q339 -156 307 -179T229 -203Q175 -203 135 -182L149 -150Q180 -164 228 -164Q281 -164 281 -121Q281 -104 269 -93T237 -83Q205 -83 187 -91L171 -76L220 -14Q48 -2 34 167H97Q100 107 141 72T249 38Q312 38 351 65T390 136Q390 173 362 195T272 231L205 246Q122 265 87 297T52 386Q52 453 105 492T246 531Z" horiz-adv-x="487" unicode="ş"/>
			<glyph d="M303 729Q422 729 495 668T568 507H500Q496 581 443 626T304 671Q221 671 173 634T126 529Q126 490 149 463T226 422L400 379Q504 353 548 307T593 189Q593 93 520 39T320 -15Q183 -15 109 46T35 217V235H103V229Q103 43 334 43Q413 43 469 83T525 188Q525 281 382 316L219 356Q139 376 98 416T58 528Q58 585 86 630T170 702T303 729ZM172 919H237L323 817L411 919H469L355 778H286Z" horiz-adv-x="628" unicode="Š"/>
			<glyph d="M246 531Q330 531 381 487T435 365H372Q370 419 333 448T237 478Q181 478 148 454T115 389Q115 326 231 300Q351 273 378 259T422 225T446 185T453 140Q453 70 395 27T246 -15Q50 -15 34 167H97Q101 105 142 71T249 38Q312 38 351 65T390 135Q390 175 360 196T268 232L201 247Q125 264 88 296T52 386Q52 454 107 492T246 531ZM102 731H167L253 629L341 731H399L285 590H216Z" horiz-adv-x="493" unicode="š"/>
			<glyph d="M26 714H592V656H343V0H275V656H26ZM266 -50H352V-131Q352 -166 329 -184T266 -203V-175Q302 -169 305 -141H266Z" horiz-adv-x="618" unicode="Ţ"/>
			<glyph d="M100 671H163V516H268V463H163V111Q163 75 176 61T221 47Q240 47 268 50V-4Q228 -6 212 -6Q145 -6 122 21T100 106V463H10V516H100ZM142 -50H228V-131Q228 -166 205 -184T142 -203V-175Q178 -169 181 -141H142Z" horiz-adv-x="302" unicode="ţ"/>
			<glyph d="M26 714H592V656H343V0H275V656H26ZM163 919H228L314 817L402 919H460L346 778H277Z" horiz-adv-x="618" unicode="Ť"/>
			<glyph d="M100 671H163V516H268V463H163V111Q163 75 176 61T221 47Q240 47 268 50V-4Q228 -6 212 -6Q145 -6 122 21T100 106V463H10V516H100ZM309 714H387L301 573H254Z" horiz-adv-x="338" unicode="ť"/>
			<glyph d="M26 714H592V656H343V486H508V441H343V0H275V441H111V486H275V656H26Z" horiz-adv-x="618" unicode="Ŧ"/>
			<glyph d="M100 671H163V516H268V463H163V364H280V319H163V113Q163 82 170 69T190 52T221 47Q239 47 268 50V-4Q231 -6 211 -6Q163 -6 140 7T109 45T100 109V319H0V364H100V463H10V516H100Z" horiz-adv-x="302" unicode="ŧ"/>
			<glyph d="M64 714H132V271Q132 154 184 98T341 43Q450 43 500 99T551 272V714H619V259Q619 127 545 56T341 -15Q209 -15 136 57T64 259ZM467 900H505Q496 852 472 828T418 805Q386 805 343 828Q301 851 280 851Q242 851 230 800H191Q196 843 220 869T280 896Q313 896 355 874Q396 852 415 852Q435 852 447 863T467 900Z" horiz-adv-x="683" unicode="Ũ"/>
			<glyph d="M62 516H125V193Q125 108 158 73T262 38Q331 38 374 93T418 246V516H481V0H423V93H421Q396 42 349 13T243 -15Q62 -15 62 181ZM394 710H432Q424 665 401 640T345 615Q317 615 286 630T239 653T207 661Q190 661 178 651T157 610H118Q124 655 149 680T207 706Q232 706 257 695T304 673T342 662Q360 662 373 672T394 710Z" horiz-adv-x="543" unicode="ũ"/>
			<glyph d="M64 714H132V271Q132 154 184 98T341 43Q450 43 500 99T551 272V714H619V259Q619 127 545 56T341 -15Q209 -15 136 57T64 259ZM184 873H513V828H184Z" horiz-adv-x="683" unicode="Ū"/>
			<glyph d="M62 516H125V193Q125 108 158 73T262 38Q331 38 374 93T418 246V516H481V0H423V93H421Q396 42 349 13T243 -15Q62 -15 62 181ZM111 683H440V638H111Z" horiz-adv-x="543" unicode="ū"/>
			<glyph d="M64 714H132V271Q132 154 184 98T341 43Q450 43 500 99T551 272V714H619V259Q619 127 545 56T341 -15Q209 -15 136 57T64 259ZM205 914H244Q246 878 275 855T347 832Q387 832 417 854T453 914H492Q484 855 446 821T347 787Q285 787 248 820T205 914Z" horiz-adv-x="683" unicode="Ŭ"/>
			<glyph d="M62 516H125V193Q125 108 158 73T262 38Q331 38 374 93T418 246V516H481V0H423V93H421Q396 42 349 13T243 -15Q62 -15 62 181ZM132 724H171Q173 687 203 664T274 642Q314 642 344 664T380 724H419Q411 665 372 631T274 597Q213 597 175 630T132 724Z" horiz-adv-x="543" unicode="ŭ"/>
			<glyph d="M64 714H132V271Q132 154 184 98T341 43Q450 43 500 99T551 272V714H619V259Q619 127 545 56T341 -15Q209 -15 136 57T64 259ZM346 967Q391 967 422 935T453 860Q453 817 422 785T346 753Q302 753 270 785T239 860Q239 903 269 935T346 967ZM345 928Q318 928 298 909T278 860Q278 831 297 811T346 792Q376 792 395 811T414 860Q414 888 395 908T345 928Z" horiz-adv-x="683" unicode="Ů"/>
			<glyph d="M62 516H125V193Q125 108 158 73T262 38Q331 38 374 93T418 246V516H481V0H423V93H421Q396 42 349 13T243 -15Q62 -15 62 181ZM275 787Q319 787 350 755T382 680Q382 637 351 605T275 573Q231 573 199 604T168 680Q168 723 198 755T275 787ZM274 748Q247 748 227 729T207 680Q207 651 226 631T275 612Q304 612 323 631T343 680Q343 707 324 727T274 748Z" horiz-adv-x="543" unicode="ů"/>
			<glyph d="M64 714H132V271Q132 154 184 98T341 43Q450 43 500 99T551 272V714H619V259Q619 127 545 56T341 -15Q209 -15 136 57T64 259ZM340 923H416L290 782H239ZM496 923H572L446 782H395Z" horiz-adv-x="683" unicode="Ű"/>
			<glyph d="M62 516H125V193Q125 108 158 73T262 38Q331 38 374 93T418 246V516H481V0H423V93H421Q396 42 349 13T243 -15Q62 -15 62 181ZM267 731H343L217 590H166ZM423 731H499L373 590H322Z" horiz-adv-x="543" unicode="ű"/>
			<glyph d="M64 714H132V272Q132 162 180 102T341 43Q452 43 501 101T551 272V714H619V259Q619 137 554 65T372 -14Q336 -44 321 -66T307 -116Q307 -143 321 -153T351 -164Q384 -164 406 -123L435 -136Q419 -171 396 -187T337 -203Q292 -203 269 -180T246 -121Q246 -92 266 -67T327 -15Q202 -11 133 60T64 258Z" horiz-adv-x="683" unicode="Ų"/>
			<glyph d="M62 516H125V187Q125 109 158 73T262 38Q331 38 374 93T418 246V516H481V0H461Q420 -33 399 -59T379 -117Q379 -139 391 -151T423 -164Q456 -164 478 -123L507 -136Q493 -167 471 -185T409 -203Q366 -203 342 -180T318 -120Q318 -65 423 0V93H421Q397 42 350 13T243 -15Q148 -15 105 35T62 182Z" horiz-adv-x="543" unicode="ų"/>
			<glyph d="M-1 714H72L234 89H236L410 714H495L670 89H672L835 714H903L706 0H634L453 639H451L271 0H197ZM426 919H495L609 778H544L458 880L370 778H312Z" horiz-adv-x="905" unicode="Ŵ"/>
			<glyph d="M11 516H78L210 74H212L338 516H409L535 74H537L669 516H736L570 0H501L374 434H372L246 0H177ZM343 730H412L526 589H461L375 691L287 589H229Z" horiz-adv-x="753" unicode="ŵ"/>
			<glyph d="M-11 714H70L305 352L539 714H620L338 294V0H270V294ZM280 919H349L463 778H398L312 880L224 778H166Z" horiz-adv-x="609" unicode="Ŷ"/>
			<glyph d="M5 516H72L242 76L401 516H464L240 -79Q214 -147 186 -169T107 -191Q71 -191 56 -186V-133Q76 -138 99 -138Q125 -138 141 -128T169 -98T211 2ZM210 730H279L393 589H328L242 691L154 589H96Z" horiz-adv-x="469" unicode="ŷ"/>
			<glyph d="M-11 714H70L305 352L539 714H620L338 294V0H270V294ZM190 901H258V800H190ZM367 901H435V800H367Z" horiz-adv-x="609" unicode="Ÿ"/>
			<glyph d="M53 714H567V654L97 58H577V0H21V60L491 656H53ZM363 919H441L309 778H258Z" horiz-adv-x="598" unicode="Ź"/>
			<glyph d="M41 516H435V471L94 53H449V0H18V51L355 463H41ZM308 731H386L254 590H203Z" horiz-adv-x="469" unicode="ź"/>
			<glyph d="M53 714H567V654L97 58H577V0H21V60L491 656H53ZM261 901H329V800H261Z" horiz-adv-x="598" unicode="Ż"/>
			<glyph d="M41 516H435V471L94 53H449V0H18V51L355 463H41ZM205 711H273V610H205Z" horiz-adv-x="469" unicode="ż"/>
			<glyph d="M53 714H567V654L97 58H577V0H21V60L491 656H53ZM144 919H209L295 817L383 919H441L327 778H258Z" horiz-adv-x="598" unicode="Ž"/>
			<glyph d="M41 516H435V471L94 53H449V0H18V51L355 463H41ZM89 731H154L240 629L328 731H386L272 590H203Z" horiz-adv-x="475" unicode="ž"/>
			<glyph d="M435 714Q462 714 496 709L484 657Q462 661 443 661Q422 661 403 654T367 625T335 538L314 439H427L418 386H305L235 15Q220 -65 200 -101T146 -155T65 -173Q37 -173 13 -168L22 -114Q49 -120 71 -120Q148 -120 169 10L241 386H141L150 439H251L268 530Q283 600 301 637T351 694T435 714Z" horiz-adv-x="568" unicode="ƒ"/>
			<glyph d="M303 729Q422 729 495 668T568 507H500Q496 581 443 626T304 671Q221 671 173 634T126 529Q126 490 149 463T226 422L400 379Q504 353 548 307T593 189Q593 93 520 39T320 -15Q183 -15 109 46T35 217V235H103V229Q103 43 334 43Q413 43 469 83T525 188Q525 281 382 316L219 356Q139 376 98 416T58 528Q58 585 86 630T170 702T303 729ZM277 -50H363V-131Q363 -166 340 -184T277 -203V-175Q313 -169 316 -141H277Z" horiz-adv-x="628" unicode="Ș"/>
			<glyph d="M246 531Q330 531 381 487T435 365H372Q370 419 333 448T237 478Q181 478 148 454T115 389Q115 326 231 300Q351 273 378 259T422 225T446 185T453 140Q453 70 395 27T246 -15Q50 -15 34 167H97Q101 105 142 71T249 38Q312 38 351 65T390 135Q390 175 360 196T268 232L201 247Q125 264 88 296T52 386Q52 454 107 492T246 531ZM206 -50H292V-131Q292 -166 269 -184T206 -203V-175Q242 -169 245 -141H206Z" horiz-adv-x="487" unicode="ș"/>
			<glyph d="M-6 714H560V656H311V0H243V656H-6ZM234 -50H320V-131Q320 -166 297 -184T234 -203V-175Q270 -169 273 -141H234Z" horiz-adv-x="554" unicode="Ț"/>
			<glyph d="M100 671H163V516H268V463H163V111Q163 75 176 61T221 47Q240 47 268 50V-4Q228 -6 212 -6Q145 -6 122 21T100 106V463H10V516H100ZM142 -50H228V-131Q228 -166 205 -184T142 -203V-175Q178 -169 181 -141H142Z" horiz-adv-x="302" unicode="ț"/>
			<glyph d="M67 730H136L250 589H185L99 691L11 589H-47Z" unicode="ˆ"/>
			<glyph d="M-54 731H11L97 629L185 731H243L129 590H60Z" unicode="ˇ"/>
			<glyph d="M-66 683H263V638H-66Z" unicode="ˉ"/>
			<glyph d="M-45 724H-6Q-4 687 26 664T97 642Q137 642 167 664T203 724H242Q234 665 195 631T97 597Q36 597 -1 630T-45 724Z" unicode="˘"/>
			<glyph d="M65 711H133V610H65Z" unicode="˙"/>
			<glyph d="M99 787Q143 787 174 755T206 680Q206 637 175 605T99 573Q55 573 23 604T-8 680Q-8 723 22 755T99 787ZM98 748Q71 748 51 729T31 680Q31 651 50 631T99 612Q128 612 147 631T167 680Q167 707 148 727T98 748Z" unicode="˚"/>
			<glyph d="M157 0H195Q159 -29 136 -56T113 -117Q113 -139 125 -151T157 -164Q190 -164 212 -123L241 -136Q225 -171 202 -187T143 -203Q100 -203 76 -180T52 -120Q52 -92 75 -64T157 0Z" unicode="˛"/>
			<glyph d="M217 710H255Q247 665 224 640T168 615Q140 615 109 630T62 653T30 661Q13 661 1 651T-20 610H-59Q-53 655 -28 680T30 706Q55 706 80 695T127 673T165 662Q183 662 196 672T217 710Z" unicode="˜"/>
			<glyph d="M74 731H150L24 590H-27ZM230 731H306L180 590H129Z" unicode="˝"/>
			<glyph d="M298 712H381L668 0H19ZM339 627L126 72H556Z" horiz-adv-x="686" unicode="Δ"/>
			<glyph d="M374 721Q461 721 534 681T651 571T694 415Q694 316 643 240T502 139V67H694V0H438V183Q525 200 569 261T614 410Q614 513 545 581T374 649Q270 649 201 580T133 410Q133 322 179 259T310 183V0H53V67H246V139Q158 164 105 238T53 413Q53 498 94 568T211 679T374 721Z" horiz-adv-x="760" unicode="Ω"/>
			<glyph d="M65 516H128V190Q128 116 158 77T265 38Q336 38 378 94T421 249V516H484V0H426V93H424Q400 42 352 13T246 -15Q175 -15 128 20V-191H65Z" horiz-adv-x="549" unicode="μ"/>
			<glyph d="M8 479H549V410H473V108Q473 91 479 74T511 58Q521 58 531 60T553 68V11Q535 3 519 -1T484 -6Q440 -6 419 16T398 109V410H152V0H77V410H8Z" horiz-adv-x="582" unicode="π"/>
			<glyph d="M6 304H506V246H6Z" horiz-adv-x="512" unicode="–"/>
			<glyph d="M136 304H876V246H136Z" horiz-adv-x="1012" unicode="—"/>
			<glyph d="M190 714V671Q170 663 156 639T143 586V577H185V471H101V579Q101 629 125 666T190 714Z" horiz-adv-x="290" unicode="‘"/>
			<glyph d="M105 714H189V607Q189 557 164 519T100 471V514Q121 520 134 546T147 600V608H105Z" horiz-adv-x="290" unicode="’"/>
			<glyph d="M105 106H189V-1Q189 -48 166 -86T100 -137V-94Q120 -88 133 -63T147 -6V0H105Z" horiz-adv-x="290" unicode="‚"/>
			<glyph d="M344 714V671Q324 663 310 639T297 586V577H339V471H255V579Q255 628 280 666T344 714ZM190 714V671Q165 661 154 635T143 586V577H185V471H101V579Q101 628 126 666T190 714Z" horiz-adv-x="444" unicode="“"/>
			<glyph d="M259 714H343V606Q343 556 318 519T254 471V514Q274 519 287 544T301 602V608H259ZM105 714H189V606Q189 556 164 519T100 471V514Q120 519 133 544T147 602V608H105Z" horiz-adv-x="444" unicode="”"/>
			<glyph d="M106 106H190V-1Q190 -48 167 -86T101 -137V-94Q122 -88 135 -62T148 -7V0H106ZM260 106H344V-1Q344 -48 321 -86T255 -137V-94Q276 -88 289 -62T302 -7V0H260Z" horiz-adv-x="444" unicode="„"/>
			<glyph d="M252 714H315V493H514V440H315V-151H252V440H54V493H252Z" horiz-adv-x="568" unicode="†"/>
			<glyph d="M252 714H315V516H514V463H315V100H514V47H315V-151H252V47H54V100H252V463H54V516H252Z" horiz-adv-x="568" unicode="‡"/>
			<glyph d="M256 535Q332 535 383 481T435 357Q435 281 381 229T256 178Q182 178 130 229T78 357Q78 429 129 482T256 535Z" horiz-adv-x="512" unicode="•"/>
			<glyph d="M131 106H215V0H131ZM464 106H548V0H464ZM797 106H881V0H797Z" horiz-adv-x="1012" unicode="…"/>
			<glyph d="M588 725H635L183 -34H135ZM220 706Q294 706 331 662T369 537Q369 454 330 411T220 368Q147 368 109 412T71 537Q71 619 109 662T220 706ZM219 661Q124 661 124 537Q124 474 148 443T220 413Q315 413 316 537Q316 659 219 661ZM553 323Q625 323 663 280T702 154Q702 72 664 29T553 -15Q480 -15 442 29T404 154Q404 232 440 277T553 323ZM907 323Q982 323 1019 278T1056 154Q1056 72 1018 29T907 -15Q832 -15 795 30T758 154Q759 320 907 323ZM552 278Q457 278 457 154Q457 92 481 61T553 30Q648 30 649 154Q649 278 552 278ZM906 278Q811 278 811 154Q811 88 836 59T907 30Q1002 30 1003 154Q1003 218 978 248T906 278Z" horiz-adv-x="1123" unicode="‰"/>
			<glyph d="M192 431V364L98 275L192 186V119L59 244V306Z" horiz-adv-x="271" unicode="‹"/>
			<glyph d="M79 431L212 306V244L79 119V186L173 275L79 364Z" horiz-adv-x="271" unicode="›"/>
			<glyph d="M293 725H340L-112 -34H-160Z" horiz-adv-x="179" unicode="⁄"/>
			<glyph d="M376 712Q501 712 563 635L536 576Q470 655 376 655Q289 655 233 596T157 434H490L472 389H151Q148 364 148 352Q148 333 149 330H453L434 285H152Q161 209 192 152T269 68T373 41Q426 41 466 63T547 127V50Q470 -15 371 -15Q294 -15 233 20T136 122T87 285H21L40 330H84Q83 338 83 354Q83 364 85 389H21L39 434H90Q113 563 188 637T376 712Z" horiz-adv-x="568" unicode="€"/>
			<glyph d="M291 721Q334 721 362 689T390 598Q390 457 224 277V118Q224 71 245 48T302 26Q349 26 391 66L412 38Q358 -14 292 -14Q236 -14 204 18T173 109V240L113 175L91 203L173 287V553Q173 629 205 675T291 721ZM290 684Q258 684 241 649T224 561V325Q347 471 347 593Q347 634 330 659T290 684Z" horiz-adv-x="512" unicode="ℓ"/>
			<glyph d="M88 714H409V669H275V302H222V669H88ZM482 714H567L700 380L829 714H914V302H861V666H859L713 302H683L537 666H535V302H482Z" horiz-adv-x="1002" unicode="™"/>
			<glyph d="M374 721Q461 721 534 681T651 571T694 415Q694 316 643 240T502 139V67H694V0H438V183Q525 200 569 261T614 410Q614 513 545 581T374 649Q270 649 201 580T133 410Q133 322 179 259T310 183V0H53V67H246V139Q158 164 105 238T53 413Q53 498 94 568T211 679T374 721Z" horiz-adv-x="760" unicode="Ω"/>
			<glyph d="M308 535Q420 535 493 459T567 259H163V78Q192 49 228 34T308 19Q371 19 417 47T501 139L536 118Q490 46 438 14T308 -17Q196 -17 123 61T50 259Q50 381 123 458T308 535ZM306 500Q266 500 230 485T163 440V295H454V440Q423 469 386 484T306 500Z" horiz-adv-x="612" unicode="℮"/>
			<glyph d="M224 721Q342 721 407 627T475 361Q475 179 415 83T243 -12Q154 -12 97 52T39 213Q40 308 95 367T238 427Q333 426 399 351Q400 380 400 396Q398 513 353 585T227 658Q170 658 113 611L71 661Q138 721 224 721ZM246 365Q186 365 150 321T113 210Q113 145 148 97T245 48Q312 48 352 114T395 280Q331 363 246 365ZZ" horiz-adv-x="523" unicode="∂"/>
			<glyph d="M298 712H381L668 0H19ZM339 627L126 72H556Z" horiz-adv-x="686" unicode="∆"/>
			<glyph d="M74 786H656V-214H578V714H152V-214H74Z" horiz-adv-x="731" unicode="∏"/>
			<glyph d="M45 786H583V714H146L447 290L128 -142H595V-214H31V-150L353 290L45 722Z" horiz-adv-x="627" unicode="∑"/>
			<glyph d="M55 278H558V225H55Z" horiz-adv-x="612" unicode="−"/>
			<glyph d="M293 725H340L-112 -34H-160Z" horiz-adv-x="179" unicode="∕"/>
			<glyph d="M145 375Q168 375 186 357T204 315Q204 292 186 274T145 257Q119 257 102 275T86 317Q86 340 104 357T145 375Z" horiz-adv-x="290" unicode="∙"/>
			<glyph d="M444 786H520L309 -214H234L72 120L25 98L-3 158L109 210L260 -107Z" horiz-adv-x="516" unicode="√"/>
			<glyph d="M575 410Q642 410 682 365T723 255Q723 186 682 142T576 98Q488 98 386 207Q319 143 278 121T197 99Q132 99 90 141T48 252Q48 319 88 363T193 408Q239 408 281 383T386 294L429 337Q502 410 575 410ZM575 342Q542 342 508 318T429 251Q469 211 505 188T579 166Q617 166 637 191T658 252Q658 289 637 315T575 342ZM193 341Q157 341 135 314T113 252Q113 214 135 190T196 166Q258 166 343 251Q249 341 193 341Z" horiz-adv-x="771" unicode="∞"/>
			<glyph d="M346 786Q378 786 402 772T426 730Q426 712 413 702T384 692Q367 692 348 716Q334 735 328 735Q297 735 297 644L299 548V6Q299 -105 269 -159T173 -213Q146 -213 125 -199T104 -161Q104 -146 115 -135T141 -125Q160 -125 176 -150Q187 -167 193 -167Q207 -167 214 -137T222 -56L221 -5V602Q221 786 346 786Z" horiz-adv-x="566" unicode="∫"/>
			<glyph d="M517 415H567Q559 345 524 307T437 269Q384 269 294 304T166 340Q134 340 114 316T90 263H39Q48 334 81 372T168 411Q218 411 307 375T442 340Q476 340 493 362T517 415ZM516 234H566Q558 164 525 126T437 89Q398 89 342 107T240 143T165 161Q133 161 113 136T90 83H38Q49 154 81 192T167 231Q218 231 307 195T441 160Q475 160 492 182T516 234Z" horiz-adv-x="605" unicode="≈"/>
			<glyph d="M409 532L471 500L410 384H556V313H373L306 186H556V114H269L193 -32L131 0L190 114H49V186H227L294 313H49V384H332Z" horiz-adv-x="605" unicode="≠"/>
			<glyph d="M556 528V450L148 304L556 159V82L49 266V341ZM49 42H556V-30H49Z" horiz-adv-x="605" unicode="≤"/>
			<glyph d="M49 528L556 341V266L49 82V159L457 304L49 450ZM49 42H556V-30H49Z" horiz-adv-x="605" unicode="≥"/>
			<glyph d="M266 747H338L510 356L338 -35H266L95 356ZM302 671L171 356L302 41L434 356Z" horiz-adv-x="605" unicode="◊"/>
			<glyph d="M67 516H130V-50Q130 -124 102 -157T21 -191Q4 -191 -24 -189V-137Q-17 -138 6 -138Q42 -138 54 -121T67 -61Z" unicode=""/>
			<glyph d="M-25 919H53L158 778H107Z" unicode=""/>
			<glyph d="M144 919H222L90 778H39Z" unicode=""/>
			<glyph d="M67 919H136L250 778H185L99 880L11 778H-47Z" unicode=""/>
			<glyph d="M-54 919H11L97 817L185 919H243L129 778H60Z" unicode=""/>
			<glyph d="M217 900H255Q246 852 222 828T168 805Q136 805 93 828Q51 851 30 851Q-8 851 -20 800H-59Q-54 843 -29 869T30 896Q63 896 105 874Q146 852 165 852Q185 852 197 863T217 900Z" unicode=""/>
			<glyph d="M-24 901H44V800H-24ZM153 901H221V800H153Z" unicode=""/>
			<glyph d="M-66 873H263V828H-66Z" unicode=""/>
			<glyph d="M-45 914H-6Q-4 878 25 855T97 832Q137 832 167 854T203 914H242Q234 855 196 821T97 787Q35 787 -2 820T-45 914Z" unicode=""/>
			<glyph d="M99 967Q144 967 175 935T206 860Q206 817 175 785T99 753Q55 753 23 785T-8 860Q-8 903 22 935T99 967ZM98 928Q71 928 51 909T31 860Q31 831 50 811T99 792Q129 792 148 811T167 860Q167 888 148 908T98 928Z" unicode=""/>
			<glyph d="M74 923H150L24 782H-27ZM230 923H306L180 782H129Z" unicode=""/>
			<glyph d="M65 901H133V800H65Z" unicode=""/>
			<glyph d="M149 714H227L141 573H94Z" unicode=""/>
			<glyph d="M103 -50H189V-131Q189 -166 166 -184T103 -203V-175Q139 -169 142 -141H103Z" horiz-adv-x="290" unicode=""/>
			<glyph d="M186 776V748Q150 742 147 714H186V623H100V703Q100 772 186 776Z" horiz-adv-x="290" unicode=""/>
			<glyph d="M6 718H518V0H6ZM56 667V50H468V667ZM265 609Q319 609 354 573T389 478Q389 446 377 421T325 357Q291 326 284 311Q277 294 277 234H231L229 253Q229 300 240 328T292 395Q338 436 338 474Q338 508 314 533T262 559Q192 559 180 464L130 472Q144 609 265 609ZM228 184H284V117H228Z" horiz-adv-x="524" unicode=""/>
			<glyph d="M223 714Q253 714 275 710V656Q248 661 229 661Q189 661 174 641T160 575V516H262V463H160V0H97V463H9V516H97V566Q97 644 126 678T223 714ZM323 714H386V613H323ZM323 516H386V0H323Z" horiz-adv-x="456" unicode="ﬁ"/>
			<glyph d="M223 714Q253 714 275 710V656Q248 661 229 661Q189 661 174 641T160 575V516H262V463H160V0H97V463H9V516H97V566Q97 644 126 678T223 714ZM323 714H386V0H323Z" horiz-adv-x="456" unicode="ﬂ"/>
		</font>
</defs>
</svg>
